Подписывайся на наш канал в Telegram https://t.me/torrentok и получи доступ к торрентам без ограничений!

Пока свадьба не разлучит нас / Hasta que la boda nos separe (2020) BDRip [H.264 / 1080p] торрент скачать бесплатно

Пока свадьба не разлучит нас / Hasta que la boda nos separe (2020) BDRip [H.264 / 1080p]Производство: Испания, Atresmedia Cine, Álamo Producciones Audiovisuales
Жанр: Мелодрама, комедия
Режиссер: Дани де ла Орден
Продюсер: Мерседес Гамеро, Микель Лехарса, Эдуардо Кампой

Актеры
Белен Куэста, Алехандро Гарсия, Сильвия Алонсо, Антонио Дечент, Мариам Эрнандес, Грасия Олайо, Сальва Реина, Ricardo Castella, Jorge Ponce, Эрнесто Севилья

Описание

Марину все устраивает: любимая работа, яркие вечеринки с друзьями, отношения без обязательств. Все меняется, когда она встречает мужчину своей мечты. Но есть всего одна проблема — он собирается жениться на ее лучшей подруге…


Возраст: 12+ (зрителям, достигшим 12 лет)
Дата мировой премьеры: 10 февраля 2020, ...
Цифровой релиз: 31 августа 2020, Capella Film
Продолжительность: 01: 50: 36
Качество видео: BDRip
Перевод: Многоголосый профессиональный (iTunes)
Субтитры: Русские (Forced)
Видео: AVC/H.264, 1920x806, ~11, 5 Mbps
Аудио: AC3, 6 ch, 384 kbps - Русский
Аудио: AC3, 6 ch, 448 kbps - Испанский
Общее
Уникальный идентификатор : 246172947729720691736996635130148634387 (0xB9332F66311ED34580BFBB60388F3F13)
Полное имя : D: NNMClubPokaSvadbaNeRazluchitNasBDRip1080p.mkv
Формат : Matroska
Версия формата : Version 4
Размер файла : 9, 51 Гбайт
Продолжительность : 1 ч. 50 м.
Общий поток : 12, 3 Мбит/сек
Дата кодирования : UTC 2020-08-30 20: 35: 30
Программа кодирования : mkvmerge v9.5.0 (\'Quiet Fire\') 64bit
Библиотека кодирования : libebml v1.3.4 + libmatroska v1.4.5
Видео
Идентификатор : 1
Формат : AVC
Формат/Информация : Advanced Video Codec
Профиль формата : [email protected]
Настройки формата : CABAC/5 Ref Frames
Параметр CABAC формата : Да
Параметр RefFrames формата : 5 кадров
Идентификатор кодека : V_MPEG4/ISO/AVC
Продолжительность : 1 ч. 50 м.
Битрейт : 11, 5 Мбит/сек
Ширина : 1920 пикселей
Высота : 806 пикселей
Соотношение сторон : 2, 40: 1
Режим частоты кадров : Постоянный
Частота кадров : 24, 000 кадра/сек
Цветовое пространство : YUV
Субдискретизация насыщенности : 4: 2: 0
Битовая глубина : 8 бит
Тип развёртки : Прогрессивная
Бит/(Пиксели*Кадры) : 0.309
Размер потока : 8, 86 Гбайт (93%)
Заголовок : Sisendrovich(R)
Библиотека кодирования : x264 core 159 r2991 1771b55
Настройки программы : cabac=1/ref=5/deblock=1: -1: -1/analyse=0x3: 0x133/me=tesa/subme=11/psy=1/psy_rd=1.00: 0.00/mixed_ref=1/me_range=32/chroma_me=1/trellis=2/8x8dct=1/cqm=0/deadzone=21, 11/fast_pskip=0/chroma_qp_offset=-2/threads=24/lookahead_threads=4/sliced_threads=0/nr=0/decimate=0/interlaced=0/bluray_compat=0/constrained_intra=0/bframes=8/b_pyramid=2/b_adapt=2/b_bias=0/direct=3/weightb=1/open_gop=0/weightp=2/keyint=240/keyint_min=23/scenecut=40/intra_refresh=0/rc_lookahead=60/rc=2pass/mbtree=0/bitrate=11476/ratetol=1.0/qcomp=0.70/qpmin=0/qpmax=69/qpstep=4/cplxblur=20.0/qblur=0.5/vbv_maxrate=50000/vbv_bufsize=62500/nal_hrd=none/filler=0/ip_ratio=1.40/pb_ratio=1.30/aq=3: 0.80
Язык : Spanish
Default : Да
Forced : Нет
Аудио #1
Идентификатор : 2
Формат : AC-3
Формат/Информация : Audio Coding 3
Коммерческое название : Dolby Digital
Идентификатор кодека : A_AC3
Продолжительность : 1 ч. 50 м.
Вид битрейта : Постоянный
Битрейт : 384 Кбит/сек
Каналы : 6 каналов
ChannelLayout : L R C LFE Ls Rs
Частота : 48, 0 КГц
Частота кадров : 31, 250 кадров/сек (1536 SPF)
Битовая глубина : 16 бит
Метод сжатия : С потерями
Размер потока : 304 Мбайт (3%)
Заголовок : rus
Язык : Russian
ServiceKind/String : Complete Main
Default : Да
Forced : Нет
Аудио #2
Идентификатор : 3
Формат : AC-3
Формат/Информация : Audio Coding 3
Коммерческое название : Dolby Digital
Идентификатор кодека : A_AC3
Продолжительность : 1 ч. 50 м.
Вид битрейта : Постоянный
Битрейт : 448 Кбит/сек
Каналы : 6 каналов
ChannelLayout : L R C LFE Ls Rs
Частота : 48, 0 КГц
Частота кадров : 31, 250 кадров/сек (1536 SPF)
Битовая глубина : 16 бит
Метод сжатия : С потерями
Размер потока : 354 Мбайт (4%)
Заголовок : esp
Язык : Spanish
ServiceKind/String : Complete Main
Default : Нет
Forced : Нет
Текст
Идентификатор : 4
Формат : UTF-8
Идентификатор кодека : S_TEXT/UTF8
Идентификатор кодека/Информация : UTF-8 Plain Text
Продолжительность : 57 м. 27 с.
Битрейт : 2 бит/сек
ElementCount : 20
Размер потока : 1, 09 Кбайт (0%)
Заголовок : rusForced
Язык : Russian
Default : Да
Forced : Нет
Меню
00: 00: 00.000 : en: Chapter 1
00: 08: 12.291 : en: Chapter 2
00: 18: 08.916 : en: Chapter 3
00: 28: 28.291 : en: Chapter 4
00: 37: 13.583 : en: Chapter 5
00: 46: 38.416 : en: Chapter 6
00: 55: 44.500 : en: Chapter 7
01: 05: 45.583 : en: Chapter 8
01: 15: 34.791 : en: Chapter 9
01: 25: 18.291 : en: Chapter 10
01: 34: 08.208 : en: Chapter 11
01: 42: 23.125 : en: Chapter 12

Скриншоты для ознакомления



Все одноименные релизы в Клубе
Время раздачи: 24/7 (круглосуточно) (до появления первых 3-5 скачавших)

Другие торренты по теме:

  • Пока свадьба не разлучит нас / Hasta que la boda nos separe (2020) BDRip [H.264 / 720p]
  • Пока свадьба не разлучит нас / Hasta que la boda nos separe / The Wedding Unplanner (2020) BDRip [H.264 / 720p] [MVO] [AD]

  • Посетители, находящиеся в группе Гости, не могут оставлять комментарии в данной новости.