Подписывайся на наш канал в Telegram https://t.me/torrentok и получи доступ к торрентам без ограничений!

Запретная зона (2020) CamRip [H.264 / 720p-LQ] [AD] торрент скачать бесплатно

Запретная зона (2020) CamRip [H.264 / 720p-LQ] [AD]Производство: Беларусь
Жанр: Триллер
Режиссер: Митрий Семенов-Алейников

Актеры
Дарья Мельникова, Александр Головин, Даниил Вахрушев, Сергей Сосновский, Павел Чинарёв, Ирина Безряднова, Сергей Толкач, Юлианна Михневич, Игорь Сидорчик, Никита Провалинский

Описание

1989 год, 50 км от Чернобыля. Компания друзей отправляется в поход. Во время сплава по реке молодые люди сбиваются с маршрута и попадают в зону отчуждения. Волею случая на совести ребят оказывается чужая смерть и чужие деньги. Теперь события развиваются непредсказуемо. Как поведёт себя каждый участник похода? Взаимное недоверие, страх, ревность и сумка с деньгами, которые могут всё исправить… или погубить.

Возраст: 16+ (зрителям, достигшим 16 лет)
Дата российской премьеры: 6 августа 2020 , MEGOGO Studios
Продолжительность: 01: 34: 33
Качество видео: CamRip
Перевод: Отсутствует
Субтитры: Отсутствует
Реклама: Присутствуют голосовые и текстовые вставки рекламы
Видео: AVC/H.264, 1280х536, ~2746 Kbps
Аудио: AAC, 2 ch, 384 Kbps, русский
Общее
Уникальный идентификатор : 254996039506453351819008255466616456392 (0xBFD67368D86820DAADB773B2926D04C8)
Полное имя : E: DownloadsZaPreTnaya.Zona.2020.O.TS.72Op.mkv
Формат : Matroska
Версия формата : Version 2
Размер файла : 2, 07 Гбайт
Продолжительность : 1 ч. 34 м.
Режим общего битрейта : Переменный
Общий поток : 3 129 Кбит/сек
Дата кодирования : UTC 2020-08-30 17: 19: 22
Программа кодирования : mkvmerge v8.3.0 (\'Over the Horizon\') 64bit
Библиотека кодирования : libebml v1.3.1 + libmatroska v1.4.2
Видео
Идентификатор : 1
Формат : AVC
Формат/Информация : Advanced Video Codec
Профиль формата : [email protected]
Настройки формата : CABAC/4 Ref Frames
Параметр CABAC формата : Да
Параметр RefFrames формата : 4 кадра
Идентификатор кодека : V_MPEG4/ISO/AVC
Продолжительность : 1 ч. 34 м.
Вид битрейта : Переменный
Битрейт : 2 746 Кбит/сек
Номинальный битрейт : 3 000 Кбит/сек
Максимальный битрейт : 3 000 Кбит/сек
Ширина : 1 280 пикселей
Высота : 536 пикселей
Соотношение сторон : 2, 40: 1
Режим частоты кадров : Постоянный
Частота кадров : 23, 976 (24000/1001) кадра/сек
Стандарт вещания : Component
Цветовое пространство : YUV
Субдискретизация насыщенности : 4: 2: 0
Битовая глубина : 8 бит
Тип развёртки : Прогрессивная
Бит/(Пиксели*Кадры) : 0.167
Размер потока : 1, 81 Гбайт (88%)
Библиотека кодирования : x264 core 155
Настройки программы : cabac=1/ref=4/deblock=1: 0: 0/analyse=0x3: 0x3/me=dia/subme=1/psy=1/psy_rd=1.00: 0.00/mixed_ref=0/me_range=16/chroma_me=1/trellis=0/8x8dct=1/cqm=1/deadzone=21, 11/fast_pskip=1/chroma_qp_offset=0/threads=17/lookahead_threads=2/sliced_threads=0/slices=1/nr=0/decimate=1/interlaced=0/minigop=0/stitchable=1/constrained_intra=0/bframes=2/b_pyramid=0/b_adapt=0/b_bias=0/direct=1/weightb=1/open_gop=1/weightp=0/keyint=240/keyint_min=23/scenecut=40/intra_refresh=0/rc_lookahead=0/rc=cbr/mbtree=0/bitrate=3000/ratetol=1.0/qcomp=0.60/qpmin=1/qpmax=69/qpstep=4/vbv_maxrate=3000/vbv_bufsize=3000/nal_hrd=vbr/filler=0/ip_ratio=1.40/pb_ratio=1.30/aq=1: 1.00
Default : Да
Forced : Нет
Цветовой диапазон : Limited
Основные цвета : BT.709
Характеристики трансфера : BT.709
Коэффициенты матрицы : BT.709
Аудио
Идентификатор : 2
Формат : AAC Main
Формат/Информация : Advanced Audio Codec
Идентификатор кодека : A_AAC-1
Продолжительность : 1 ч. 34 м.
Битрейт : 384 Кбит/сек
Каналы : 2 канала
Channel layout : L R
Частота : 48, 0 КГц
Частота кадров : 46, 875 кадров/сек (1024 SPF)
Метод сжатия : С потерями
Размер потока : 258 Мбайт (12%)
Default : Да
Forced : Нет

Скриншоты для ознакомления



Все одноименные релизы в Клубе
Время раздачи: 24/7 (мультитрекерная раздача)

Другие торренты по теме:

  • Запретная зона / Forbidden Zone (1982) DVDRip [Цветной] скачать через торрент бесплатно
  • Запретная Зона 3D / Bunker of the Dead (2015) WEBRip [Line]
  • Запретная Зона 3D / Bunker of the Dead (2015) HDRip [H.264] [Line]
  • Запретная Зона 3D / Bunker of the Dead (2015) HDRip [Line]
  • Запретная Зона 3D / Bunker of the Dead (2015) BDRip [H.264 / 720p] [Line]
  • Gorky 17 / Горький-17: Запретная зона (1999) [En] (1.0) License GOG
  • Евгений Гуляковский | Запретная зона (2018) [MP3]
  • Gorky 17 / Горький-17: Запретная зона (1999) [Ru / Multi] (1.0.33421) License GOG

  • Посетители, находящиеся в группе Гости, не могут оставлять комментарии в данной новости.