Подписывайся на наш канал в Telegram https://t.me/torrentok и получи доступ к торрентам без ограничений!

Шерлок Холмс: Игра теней / Sherlock Holmes: A Game of Shadows (2011) UHD BDRemux [H.265 / 2160p] [4K, HDR, 10-bit] торрент скачать бесплатно

Шерлок Холмс: Игра теней / Sherlock Holmes: A Game of Shadows (2011) UHD BDRemux [H.265 / 2160p] [4K, HDR, 10-bit]Производство: США, Великобритания/Warner Bros., Village Roadshow Pictures, Silver Pictures
Жанр: боевик, приключения, триллер, криминал, детектив
Режиссер: Гай Ричи

Актеры
Роберт Дауни мл., Джуд Лоу, Нуми Рапас, Рэйчел МакАдамс, Джаред Харрис, Стивен Фрай, Пол Андерсон, Келли Райлли, Джеральдин Джеймс, Эдди Марсан

Описание

1891 год. В Вене и Страсбурге проходит серия терактов, организованных анархистами или националистами, а по всей Европе происходят таинственные убийства. Шерлок Холмс считает, что за всем этим стоит профессор Джеймс Мориарти — математический гений, автор знаменитых лекций и трудов.


Возраст: 12+ (зрителям, достигшим 12 лет)
Рейтинг MPAA: PG-13 (детям до 13 лет просмотр нежелателен)
Релиз от: селезень
Продолжительность: 02: 08: 44
Качество видео: UHD BDRemux
Перевод: Дублированный, авторский
Субтитры: русские, украинские, английские
Видео: HEVC/H.265, 3840x2160, ~53.8 mbps
Аудио 1: AC3, 6 ch, 448 kbps, Русский (DUB)
Аудио 2: DTS-HD MA, 6 ch, 3855 kbps, Русский (AVO А. Гаврилов )
Аудио 3: DTS-HD MA, 6 ch, 3866 kbps, Русский (AVO Ю. Сербин)
Аудио 4: DTS-HD MA, 6 ch, 4106 kbps, Русский (AVO А. Киреев)
Аудио 5: AC3, 2 ch, 192 kbps, Русский (AVO Д. Пучков)
Аудио 6: AC3, 6 ch, 448 kbps, Украинский (DUB)
Аудио 7: DTS-HD MA, 6 ch, 4079 kbps, Английский
Диск на Blu-ray.com
Просмотр 4K HDR-контента на ПК
Общее
Уникальный идентификатор : 8193559172440632435191198511550184426 (0x62A05A81790EBBCCA5F38AFE4743BEA)
Полное имя : F: CINEMASherlock.Holmes.A.Game.of.Shadows.2011.BDREMUX.2160p.HDR.seleZen.mkv
Формат : Matroska
Версия формата : Version 4
Размер файла : 63, 7 Гбайт
Продолжительность : 2 ч. 8 м.
Режим общего битрейта : Переменный
Общий поток : 70, 8 Мбит/сек
Название фильма : Sherlock Holmes: A Game of Shadows 2011 4K UHD from селезень
Дата кодирования : UTC 2020-08-29 01: 48: 04
Программа кодирования : mkvmerge v40.0.0 (\'Old Town Road + Pony\') 64-bit
Библиотека кодирования : libebml v1.3.9 + libmatroska v1.5.2
Видео
Идентификатор : 1
Формат : HEVC
Формат/Информация : High Efficiency Video Coding
Профиль формата : [email protected]@High
HDR format : SMPTE ST 2086, HDR10 compatible
Идентификатор кодека : V_MPEGH/ISO/HEVC
Продолжительность : 2 ч. 8 м.
Битрейт : 53, 8 Мбит/сек
Ширина : 3 840 пикселей
Высота : 2 160 пикселей
Соотношение сторон : 16: 9
Режим частоты кадров : Постоянный
Частота кадров : 23, 976 (24000/1001) кадра/сек
Цветовое пространство : YUV
Субдискретизация насыщенности : 4: 2: 0 (Type 2)
Битовая глубина : 10 бит
Бит/(Пиксели*Кадры) : 0.270
Размер потока : 48, 4 Гбайт (76%)
Библиотека кодирования : ATEME Titan File 3.9.0 (4.9.0.0)
Язык : English
Default : Да
Forced : Нет
Цветовой диапазон : Limited
Основные цвета : BT.2020
Характеристики трансфера : PQ
Коэффициенты матрицы : BT.2020 non-constant
Mastering display color primaries : Display P3
Mastering display luminance : min: 0.0050 cd/m2, max: 4000 cd/m2
Maximum Content Light Level : 343 cd/m2
Maximum Frame-Average Light Level : 106 cd/m2
Аудио #1
Идентификатор : 2
Формат : AC-3
Формат/Информация : Audio Coding 3
Коммерческое название : Dolby Digital
Идентификатор кодека : A_AC3
Продолжительность : 2 ч. 8 м.
Вид битрейта : Постоянный
Битрейт : 448 Кбит/сек
Каналы : 6 каналов
Channel layout : L R C LFE Ls Rs
Частота : 48, 0 КГц
Частота кадров : 31, 250 кадров/сек (1536 SPF)
Метод сжатия : С потерями
Размер потока : 413 Мбайт (1%)
Заголовок : Dub License
Язык : Russian
Service kind : Complete Main
Default : Да
Forced : Да
Аудио #2
Идентификатор : 3
Формат : DTS XLL
Формат/Информация : Digital Theater Systems
Коммерческое название : DTS-HD Master Audio
Идентификатор кодека : A_DTS
Продолжительность : 2 ч. 8 м.
Вид битрейта : Переменный
Битрейт : 3 855 Кбит/сек
Каналы : 6 каналов
Channel layout : C L R Ls Rs LFE
Частота : 48, 0 КГц
Частота кадров : 93, 750 кадра/сек (512 SPF)
Битовая глубина : 24 бит
Метод сжатия : Без потерь
Размер потока : 3, 47 Гбайт (5%)
Заголовок : AVO Gavrilov
Язык : Russian
Default : Нет
Forced : Нет
Аудио #3
Идентификатор : 4
Формат : DTS XLL
Формат/Информация : Digital Theater Systems
Коммерческое название : DTS-HD Master Audio
Идентификатор кодека : A_DTS
Продолжительность : 2 ч. 8 м.
Вид битрейта : Переменный
Битрейт : 3 866 Кбит/сек
Каналы : 6 каналов
Channel layout : C L R Ls Rs LFE
Частота : 48, 0 КГц
Частота кадров : 93, 750 кадра/сек (512 SPF)
Битовая глубина : 24 бит
Метод сжатия : Без потерь
Размер потока : 3, 48 Гбайт (5%)
Заголовок : AVO Serbin
Язык : Russian
Default : Нет
Forced : Нет
Аудио #4
Идентификатор : 5
Формат : DTS XLL
Формат/Информация : Digital Theater Systems
Коммерческое название : DTS-HD Master Audio
Идентификатор кодека : A_DTS
Продолжительность : 2 ч. 8 м.
Вид битрейта : Переменный
Битрейт : 4 106 Кбит/сек
Каналы : 6 каналов
Channel layout : C L R Ls Rs LFE
Частота : 48, 0 КГц
Частота кадров : 93, 750 кадра/сек (512 SPF)
Битовая глубина : 24 бит
Метод сжатия : Без потерь
Размер потока : 3, 69 Гбайт (6%)
Заголовок : AVO Kireev
Язык : Russian
Default : Нет
Forced : Нет
Аудио #5
Идентификатор : 6
Формат : AC-3
Формат/Информация : Audio Coding 3
Коммерческое название : Dolby Digital
Идентификатор кодека : A_AC3
Продолжительность : 2 ч. 8 м.
Вид битрейта : Постоянный
Битрейт : 192 Кбит/сек
Каналы : 2 канала
Channel layout : L R
Частота : 48, 0 КГц
Частота кадров : 31, 250 кадров/сек (1536 SPF)
Метод сжатия : С потерями
Размер потока : 177 Мбайт (0%)
Заголовок : AVO Goblin
Язык : Russian
Service kind : Complete Main
Default : Нет
Forced : Нет
Аудио #6
Идентификатор : 7
Формат : AC-3
Формат/Информация : Audio Coding 3
Коммерческое название : Dolby Digital
Идентификатор кодека : A_AC3
Продолжительность : 2 ч. 8 м.
Вид битрейта : Постоянный
Битрейт : 448 Кбит/сек
Каналы : 6 каналов
Channel layout : L R C LFE Ls Rs
Частота : 48, 0 КГц
Частота кадров : 31, 250 кадров/сек (1536 SPF)
Метод сжатия : С потерями
Размер потока : 413 Мбайт (1%)
Заголовок : Dub License
Язык : Ukrainian
Service kind : Complete Main
Default : Нет
Forced : Нет
Аудио #7
Идентификатор : 8
Формат : DTS XLL
Формат/Информация : Digital Theater Systems
Коммерческое название : DTS-HD Master Audio
Идентификатор кодека : A_DTS
Продолжительность : 2 ч. 8 м.
Вид битрейта : Переменный
Битрейт : 4 079 Кбит/сек
Каналы : 6 каналов
Channel layout : C L R Ls Rs LFE
Частота : 48, 0 КГц
Частота кадров : 93, 750 кадра/сек (512 SPF)
Битовая глубина : 24 бит
Метод сжатия : Без потерь
Размер потока : 3, 67 Гбайт (6%)
Заголовок : Original
Язык : English
Default : Нет
Forced : Нет
Текст #1
Идентификатор : 9
Формат : UTF-8
Идентификатор кодека : S_TEXT/UTF8
Идентификатор кодека/Информация : UTF-8 Plain Text
Продолжительность : 1 ч. 41 м.
Битрейт : 1 бит/сек
Count of elements : 30
Размер потока : 1, 27 Кбайт (0%)
Заголовок : Forced
Язык : Russian
Default : Да
Forced : Да
Текст #2
Идентификатор : 10
Формат : UTF-8
Идентификатор кодека : S_TEXT/UTF8
Идентификатор кодека/Информация : UTF-8 Plain Text
Продолжительность : 1 ч. 59 м.
Битрейт : 79 бит/сек
Count of elements : 1178
Размер потока : 69, 8 Кбайт (0%)
Заголовок : Full Blu-ray CEE
Язык : Russian
Default : Нет
Forced : Нет
Текст #3
Идентификатор : 11
Формат : UTF-8
Идентификатор кодека : S_TEXT/UTF8
Идентификатор кодека/Информация : UTF-8 Plain Text
Продолжительность : 2 ч. 2 м.
Битрейт : 84 бит/сек
Count of elements : 1258
Размер потока : 75, 4 Кбайт (0%)
Заголовок : Full Voronine
Язык : Russian
Default : Нет
Forced : Нет
Текст #4
Идентификатор : 12
Формат : UTF-8
Идентификатор кодека : S_TEXT/UTF8
Идентификатор кодека/Информация : UTF-8 Plain Text
Продолжительность : 2 ч. 2 м.
Битрейт : 92 бит/сек
Count of elements : 1480
Размер потока : 83, 3 Кбайт (0%)
Заголовок : SDH Voronine
Язык : Russian
Default : Нет
Forced : Нет
Текст #5
Идентификатор : 13
Формат : UTF-8
Идентификатор кодека : S_TEXT/UTF8
Идентификатор кодека/Информация : UTF-8 Plain Text
Продолжительность : 1 ч. 41 м.
Битрейт : 1 бит/сек
Count of elements : 30
Размер потока : 1, 29 Кбайт (0%)
Заголовок : Forced
Язык : Ukrainian
Default : Нет
Forced : Нет
Текст #6
Идентификатор : 14
Формат : UTF-8
Идентификатор кодека : S_TEXT/UTF8
Идентификатор кодека/Информация : UTF-8 Plain Text
Продолжительность : 1 ч. 59 м.
Битрейт : 78 бит/сек
Count of elements : 1178
Размер потока : 68, 8 Кбайт (0%)
Заголовок : Full
Язык : Ukrainian
Default : Нет
Forced : Нет
Текст #7
Идентификатор : 15
Формат : UTF-8
Идентификатор кодека : S_TEXT/UTF8
Идентификатор кодека/Информация : UTF-8 Plain Text
Продолжительность : 1 ч. 59 м.
Битрейт : 48 бит/сек
Count of elements : 1180
Размер потока : 42, 8 Кбайт (0%)
Заголовок : Full
Язык : English
Default : Нет
Forced : Нет
Текст #8
Идентификатор : 16
Формат : UTF-8
Идентификатор кодека : S_TEXT/UTF8
Идентификатор кодека/Информация : UTF-8 Plain Text
Продолжительность : 1 ч. 59 м.
Битрейт : 54 бит/сек
Count of elements : 1459
Размер потока : 47, 8 Кбайт (0%)
Заголовок : SDH
Язык : English
Default : Нет
Forced : Нет
Меню
00: 00: 00.000 : en: Chapter 1
00: 09: 17.891 : en: Chapter 2
00: 19: 37.259 : en: Chapter 3
00: 30: 46.470 : en: Chapter 4
00: 40: 13.328 : en: Chapter 5
00: 50: 28.651 : en: Chapter 6
00: 59: 45.081 : en: Chapter 7
01: 09: 20.448 : en: Chapter 8
01: 18: 57.900 : en: Chapter 9
01: 30: 08.320 : en: Chapter 10
01: 39: 08.359 : en: Chapter 11
01: 49: 50.000 : en: Chapter 12
02: 00: 24.342 : en: Chapter 13

Скриншоты для ознакомления



Все одноименные релизы в Клубе
Время раздачи: c 5 до 19 мск (до появления первых 3-5 скачавших)

Другие торренты по теме:

  • Шерлок Холмс и доктор Ватсон: Кровавая надпись (1979) DVDRip [H.264 / 1080p-LQ] [handmade remastered upscale AI]
  • Линда Холмс | Шерлок Холмс. 5 минут на расследование (2017) [FB2]
  • Sherlock Holmes: Crimes and Punishments / Шерлок Холмс: Преступления и наказания (2014) [Ru / Multi] (1.0) SteamRip R.G. GameWorks скачать через торрент бесплатно
  • Sherlock Holmes: Crimes and Punishments / Шерлок Холмс: Преступления и наказания (2014) [Ru / En] (1.0) SteamRip R.G. Игроманы скачать через торрент бесплатно
  • Sherlock Holmes: Crimes and Punishments / Шерлок Холмс: Преступления и наказания (2014) [Ru / En] (1.0) Repack R.G. Механики скачать через торрент бесплатно
  • Sherlock Holmes: Crimes and Punishments / Шерлок Холмс: Преступления и наказания (2014) [Ru / En] (1.0.10897.0 Upd1) Repack R.G. Revenants скачать через торрент бесплатно
  • Шерлок Холмс: Игра теней / Sherlock Holmes: A Game of Shadows(2011) BDRip [1080p] ATV
  • Шерлок Холмс / Sherlock Holmes (2009) BDRip [1080p] ATV

  • Посетители, находящиеся в группе Гости, не могут оставлять комментарии в данной новости.