Подписывайся на наш канал в Telegram https://t.me/torrentok и получи доступ к торрентам без ограничений!

Крокодил Данди 2 / «Crocodile» Dundee II (1988) BDRip [H.265 / 1080p] [10-bit] торрент скачать бесплатно

Крокодил Данди 2 / «Crocodile» Dundee II (1988) BDRip [H.265 / 1080p] [10-bit]Производство: Австралия, США/Paramount Pictures
Жанр: боевик, комедия, приключения
Режиссер: Джон Корнелл
Продюсер: Джон Корнелл, Джейн Скотт, Пол Хоган

Актеры
Пол Хоган, Линда Козловски, Джон Майллон, Эрни Динго, Дональд Керр, Джерри Скилтон, Гас Мёркюрио, Джим Холт, Алек Уилсон, Мэгги Блинко

Описание

Данди, охотник на крокодилов, сменил австралийский шалаш на американский пентхаус: спит в шелковой пижаме и пьет кофе из японского фарфора. Но шляпу с крокодильими зубами, кожаные штаны и огромный нож за поясом он себе оставил - на всякий случай. Хватит ли этого, чтобы спасти любимую от колумбийской мафии?..


Возраст: 6+ (зрителям, достигшим 6 лет)
Рейтинг MPAA: PG (рекомендуется присутствие родителей)
Релиз от: OldGamer
Продолжительность: 01: 51: 36
Качество видео: BDRip
Перевод: Дублированный (киностудия им. Горького)
Субтитры: Русские полные (SRT), English full (SRT)
Видео: HEVC/H.265, 1920x816, ~11.8 Mbps
Аудио1: AC3, 6 ch, 448 Kbps - русский Дублированный (киностудия им. Горького)
Аудио2: AC3, 2 ch, 192 Kbps - русский Многоголосый (НТВ)
Аудио3: AC3, 2 ch, 192 Kbps - русский Многоголосый (ТВЦ)
Аудио4: AC3, 6 ch, 640 Kbps - русский Авторский (Юрий Живов)
Аудио5: AC3, 2 ch, 192 Kbps - русский Авторский (Вартан Дохалов)
Аудио6: AC3, 2 ch, 192 Kbps - русский Авторский (Сергей Кузнецов)
Аудио7: AC3, 6 ch, 640 Kbps - русский Любительский (Андрей - Ray - R7)
Аудио8: AC3, 6 ch, 384 Kbps - украинский Многоголосый (Новий канал)
Аудио9: AC3, 6 ch, 640 Kbps - english Original
x265 info: frame I: 675, Avg QP: 18.34 kb/s: 35082.55
x265 info: frame P: 29547, Avg QP: 20.01 kb/s: 25821.67
x265 info: frame B: 130340, Avg QP: 21.54 kb/s: 8466.67
x265 info: Weighted P-Frames: Y: 8.1% UV: 6.3%
x265 info: Weighted B-Frames: Y: 3.7% UV: 2.4%
x265 info: consecutive B-frames: 1.0% 2.6% 6.4% 27.3% 13.4% 29.1% 7.2% 12.6% 0.3% 0.1% 0.1%
x265 info: encoded 160562 frames in 146834.81s (1.09 fps), 11772.28 kb/s, Avg QP: 21.14
Формат : Matroska
Версия формата : Version 4
Размер файла : 11, 9 Гбайт
Продолжительность : 1 ч. 51 м.
Общий поток : 15, 3 Мбит/сек
Название фильма : Крокодил.Данди.2.Crocodile.Dundee.II.1988.BDRip-HEVC.1080p
Дата кодирования : UTC 2020-08-30 14: 27: 06
Программа кодирования : mkvmerge v49.0.0 (\'Sick Of Losing Soulmates\') 64-bit
Библиотека кодирования : libebml v1.4.0 + libmatroska v1.6.1
Видео
Идентификатор : 1
Формат : HEVC
Формат/Информация : High Efficiency Video Coding
Профиль формата : [email protected]@High
Идентификатор кодека : V_MPEGH/ISO/HEVC
Продолжительность : 1 ч. 51 м.
Битрейт : 11, 8 Мбит/сек
Ширина : 1 920 пикселей
Высота : 816 пикселей
Соотношение сторон : 2, 35: 1
Режим частоты кадров : Постоянный
Частота кадров : 23, 976 (24000/1001) кадра/сек
Цветовое пространство : YUV
Субдискретизация насыщенности : 4: 2: 0
Битовая глубина : 10 бит
Бит/(Пиксели*Кадры) : 0.313
Размер потока : 9, 18 Гбайт (77%)
Заголовок : Crocodile Dundee II/Rip by OldGamer
Библиотека кодирования : x265 3.4+1-7b120308dc64: WindowsGCC 10.1.064 bit 10bit
Настройки программы : cpuid=1111039/frame-threads=3/numa-pools=8/wpp/no-pmode/no-pme/no-psnr/no-ssim/log-level=2/input-csp=1/input-res=1920x816/interlace=0/total-frames=160562/level-idc=41/high-tier=1/uhd-bd=0/ref=5/no-allow-non-conformance/no-repeat-t_heads/annexb/no-aud/no-hrd/info/hash=0/no-temporal-layers/open-gop/min-keyint=23/keyint=240/gop-lookahead=0/bframes=10/b-adapt=2/b-pyramid/bframe-bias=0/rc-lookahead=60/lookahead-slices=0/scenecut=40/hist-scenecut=0/radl=0/no-splice/no-intra-refresh/ctu=64/min-cu-size=8/rect/amp/max-tu-size=32/tu-inter-depth=4/tu-intra-depth=4/limit-tu=1/rdoq-level=2/dynamic-rd=0.00/no-ssim-rd/signhide/no-tskip/nr-intra=0/nr-inter=0/no-constrained-intra/no-strong-intra-smoothing/max-merge=5/limit-refs=3/no-limit-modes/me=3/subme=7/merange=57/temporal-mvp/no-frame-dup/no-hme/weightp/weightb/no-analyze-src-pics/deblock=-3: -3/no-sao/no-sao-non-deblock/rd=6/selective-sao=0/no-early-skip/rskip/no-fast-intra/no-tskip-fast/no-cu-lossless/b-intra/no-splitrd-skip/rdpenalty=0/psy-rd=2.00/psy-rdoq=1.00/no-rd-refine/no-lossless/cbqpoffs=0/crqpoffs=0/rc=crf/crf=18.0/qcomp=0.60/qpstep=4/stats-write=0/stats-read=0/vbv-maxrate=50000/vbv-bufsize=50000/vbv-init=0.9/crf-max=0.0/crf-min=0.0/ipratio=1.40/pbratio=1.30/aq-mode=1/aq-strength=1.00/no-cutree/zone-count=1/zones: /start-frame=154909/end-frame=160543/qp=36/no-strict-cbr/qg-size=32/no-rc-grain/qpmax=69/qpmin=0/no-const-vbv/sar=1/overscan=0/videoformat=5/range=0/colorprim=2/transfer=2/colormatrix=2/chromaloc=0/display-window=0/cll=0, 0/min-luma=0/max-luma=1023/log2-max-poc-lsb=8/vui-timing-info/vui-hrd-info/slices=1/no-opt-qp-pps/no-opt-ref-list-length-pps/no-multi-pass-opt-rps/scenecut-bias=0.00/hist-threshold=0.01/no-opt-cu-delta-qp/no-aq-motion/no-hdr10/no-hdr10-opt/no-dhdr10-opt/no-idr-recovery-sei/analysis-reuse-level=0/analysis-save-reuse-level=0/analysis-load-reuse-level=0/scale-factor=0/refine-intra=0/refine-inter=0/refine-mv=1/refine-ctu-distortion=0/no-limit-sao/ctu-info=0/no-lowpass-dct/refine-analysis-type=0/copy-pic=1/max-ausize-factor=1.0/no-dynamic-refine/no-single-sei/no-hevc-aq/no-svt/no-field/qp-adaptation-range=1.00/no-scenecut-aware-qpconformance-window-offsets/right=0/bottom=0/decoder-max-rate=0
Язык : English
Default : Да
Forced : Нет
Аудио #1
Идентификатор : 2
ID in the original source medium : 4352 (0x1100)
Формат : AC-3
Формат/Информация : Audio Coding 3
Коммерческое название : Dolby Digital
Идентификатор кодека : A_AC3
Продолжительность : 1 ч. 51 м.
Вид битрейта : Постоянный
Битрейт : 448 Кбит/сек
Каналы : 6 каналов
Channel layout : L R C LFE Ls Rs
Частота : 48, 0 КГц
Частота кадров : 31, 250 кадров/сек (1536 SPF)
Метод сжатия : С потерями
Размер потока : 358 Мбайт (3%)
Заголовок : Дубляж (киностудия им. Горького)
Язык : Russian
Service kind : Complete Main
Default : Да
Forced : Нет
Носитель оригинала : Blu-ray
Аудио #2
Идентификатор : 3
ID in the original source medium : 4357 (0x1105)
Формат : AC-3
Формат/Информация : Audio Coding 3
Коммерческое название : Dolby Digital
Идентификатор кодека : A_AC3
Продолжительность : 1 ч. 51 м.
Вид битрейта : Постоянный
Битрейт : 192 Кбит/сек
Каналы : 2 канала
Channel layout : L R
Частота : 48, 0 КГц
Частота кадров : 31, 250 кадров/сек (1536 SPF)
Метод сжатия : С потерями
Размер потока : 153 Мбайт (1%)
Заголовок : MVO (НТВ)
Язык : Russian
Service kind : Complete Main
Default : Нет
Forced : Нет
Носитель оригинала : Blu-ray
Аудио #3
Идентификатор : 4
ID in the original source medium : 4358 (0x1106)
Формат : AC-3
Формат/Информация : Audio Coding 3
Коммерческое название : Dolby Digital
Идентификатор кодека : A_AC3
Продолжительность : 1 ч. 51 м.
Вид битрейта : Постоянный
Битрейт : 192 Кбит/сек
Каналы : 2 канала
Channel layout : L R
Частота : 48, 0 КГц
Частота кадров : 31, 250 кадров/сек (1536 SPF)
Метод сжатия : С потерями
Размер потока : 153 Мбайт (1%)
Заголовок : MVO (ТВЦ)
Язык : Russian
Service kind : Complete Main
Default : Нет
Forced : Нет
Носитель оригинала : Blu-ray
Аудио #4
Идентификатор : 5
Формат : AC-3
Формат/Информация : Audio Coding 3
Коммерческое название : Dolby Digital
Идентификатор кодека : A_AC3
Продолжительность : 1 ч. 51 м.
Вид битрейта : Постоянный
Битрейт : 640 Кбит/сек
Каналы : 6 каналов
Channel layout : L R C LFE Ls Rs
Частота : 48, 0 КГц
Частота кадров : 31, 250 кадров/сек (1536 SPF)
Метод сжатия : С потерями
Размер потока : 511 Мбайт (4%)
Заголовок : AVO (Юрий Живов)
Язык : Russian
Service kind : Complete Main
Default : Нет
Forced : Нет
Аудио #5
Идентификатор : 6
ID in the original source medium : 4355 (0x1103)
Формат : AC-3
Формат/Информация : Audio Coding 3
Коммерческое название : Dolby Digital
Идентификатор кодека : A_AC3
Продолжительность : 1 ч. 51 м.
Вид битрейта : Постоянный
Битрейт : 192 Кбит/сек
Каналы : 2 канала
Channel layout : L R
Частота : 48, 0 КГц
Частота кадров : 31, 250 кадров/сек (1536 SPF)
Метод сжатия : С потерями
Размер потока : 153 Мбайт (1%)
Заголовок : AVO (Вартан Дохалов)
Язык : Russian
Service kind : Complete Main
Default : Нет
Forced : Нет
Носитель оригинала : Blu-ray
Аудио #6
Идентификатор : 7
ID in the original source medium : 4356 (0x1104)
Формат : AC-3
Формат/Информация : Audio Coding 3
Коммерческое название : Dolby Digital
Идентификатор кодека : A_AC3
Продолжительность : 1 ч. 51 м.
Вид битрейта : Постоянный
Битрейт : 192 Кбит/сек
Каналы : 2 канала
Channel layout : L R
Частота : 48, 0 КГц
Частота кадров : 31, 250 кадров/сек (1536 SPF)
Метод сжатия : С потерями
Размер потока : 153 Мбайт (1%)
Заголовок : AVO (Сергей Кузнецов)
Язык : Russian
Service kind : Complete Main
Default : Нет
Forced : Нет
Носитель оригинала : Blu-ray
Аудио #7
Идентификатор : 8
Формат : AC-3
Формат/Информация : Audio Coding 3
Коммерческое название : Dolby Digital
Идентификатор кодека : A_AC3
Продолжительность : 1 ч. 51 м.
Вид битрейта : Постоянный
Битрейт : 640 Кбит/сек
Каналы : 6 каналов
Channel layout : L R C LFE Ls Rs
Частота : 48, 0 КГц
Частота кадров : 31, 250 кадров/сек (1536 SPF)
Метод сжатия : С потерями
Размер потока : 511 Мбайт (4%)
Заголовок : VO (Андрей - Ray - R7)
Язык : Russian
Service kind : Complete Main
Default : Нет
Forced : Нет
Аудио #8
Идентификатор : 9
Формат : AC-3
Формат/Информация : Audio Coding 3
Коммерческое название : Dolby Digital
Идентификатор кодека : A_AC3
Продолжительность : 1 ч. 51 м.
Вид битрейта : Постоянный
Битрейт : 384 Кбит/сек
Каналы : 6 каналов
Channel layout : L R C LFE Ls Rs
Частота : 48, 0 КГц
Частота кадров : 31, 250 кадров/сек (1536 SPF)
Метод сжатия : С потерями
Размер потока : 307 Мбайт (3%)
Заголовок : MVO (Новий канал)
Язык : Ukrainian
Service kind : Complete Main
Default : Нет
Forced : Нет
Аудио #9
Идентификатор : 10
Формат : AC-3
Формат/Информация : Audio Coding 3
Коммерческое название : Dolby Digital
Идентификатор кодека : A_AC3
Продолжительность : 1 ч. 51 м.
Вид битрейта : Постоянный
Битрейт : 640 Кбит/сек
Каналы : 6 каналов
Channel layout : L R C LFE Ls Rs
Частота : 48, 0 КГц
Частота кадров : 31, 250 кадров/сек (1536 SPF)
Метод сжатия : С потерями
Размер потока : 511 Мбайт (4%)
Язык : English
Service kind : Complete Main
Default : Нет
Forced : Нет
Текст #1
Идентификатор : 11
Формат : UTF-8
Идентификатор кодека : S_TEXT/UTF8
Идентификатор кодека/Информация : UTF-8 Plain Text
Продолжительность : 1 ч. 45 м.
Битрейт : 60 бит/сек
Count of elements : 1235
Размер потока : 47, 2 Кбайт (0%)
Язык : Russian
Default : Нет
Forced : Нет
Текст #2
Идентификатор : 12
Формат : UTF-8
Идентификатор кодека : S_TEXT/UTF8
Идентификатор кодека/Информация : UTF-8 Plain Text
Продолжительность : 1 ч. 49 м.
Битрейт : 34 бит/сек
Count of elements : 885
Размер потока : 28, 2 Кбайт (0%)
Язык : English
Default : Нет
Forced : Нет
Меню
00: 00: 00.000 : en: Chapter 01
00: 05: 09.517 : en: Chapter 02
00: 12: 49.560 : en: Chapter 03
00: 17: 19.413 : en: Chapter 04
00: 22: 41.276 : en: Chapter 05
00: 28: 59.487 : en: Chapter 06
00: 33: 22.917 : en: Chapter 07
00: 38: 39.692 : en: Chapter 08
00: 45: 26.014 : en: Chapter 09
00: 50: 32.487 : en: Chapter 10
00: 56: 54.702 : en: Chapter 11
01: 04: 12.890 : en: Chapter 12
01: 13: 28.737 : en: Chapter 13
01: 19: 48.742 : en: Chapter 14
01: 23: 33.508 : en: Chapter 15
01: 28: 45.111 : en: Chapter 16
01: 33: 08.374 : en: Chapter 17
01: 38: 17.892 : en: Chapter 18
01: 43: 13.478 : en: Chapter 19
01: 47: 43.457 : en: Chapter 20

Скриншоты для ознакомления



Все одноименные релизы в Клубе
Время раздачи: 24/7 (круглосуточно) (до появления первых 3-5 скачавших)

Другие торренты по теме:

  • Крокодил Данди 2 / "Crocodile" Dundee II (1988) BDRip [H.264 / 1080p-LQ] [Hi10P] скачать через торрент бесплатно
  • Крокодил Данди в Лос-Анджелесе / Crocodile Dundee in Los Angeles (2001) HDTVRip [H.264 / 720p-LQ] [Hi10P]
  • Крокодил Данди 2 / Crocodile Dundee II (1988) BDRip [H.265 / 1080p-LQ]
  • Крокодил Данди / Crocodile Dundee (1986) BDRip [H.265 / 1080p-LQ]
  • Крокодил Данди / Crocodile Dundee (1986) BDRip [H.265 / 1080p] [10-bit]

  • Посетители, находящиеся в группе Гости, не могут оставлять комментарии в данной новости.