Подписывайся на наш канал в Telegram https://t.me/torrentok и получи доступ к торрентам без ограничений!

Трон: Наследие / TRON: Legacy (2010) BDRip [H.265 / 1080p] [10-bit] [IMAX] торрент скачать бесплатно

Трон: Наследие / TRON: Legacy (2010) BDRip [H.265 / 1080p] [10-bit] [IMAX]Производство: США/Walt Disney Pictures, LivePlanet
Жанр: Фантастика, боевик, приключения
Режиссер: Джозеф Косински

Актеры
Джефф Бриджес, Гаррет Хедлунд, Оливия Уайлд, Брюс Бокслейтнер, Джеймс Фрейн, Бо Гарретт, Майкл Шин, Серинда Свон, Йайа ДаКоста, Элизабет Мэтис

Описание

Сэм Флинн, технически одарённый 27-летний сын Кевина Флинна, начинает расследовать исчезновение своего отца и оказывается втянутым в тот же мир жестоких программ и гладиаторских игр, в котором его отец жил на протяжении 20 лет. Вместе с помощницей Кевина отец и сын пускаются в рискованное путешествие за жизнью по поражающей взгляд кибер-вселенной, которая стала ещё более совершенной и чрезвычайно опасной.


Возраст: 12+ (зрителям, достигшим 12 лет)
Рейтинг MPAA: PG (рекомендуется присутствие родителей)
Релиз от: KORSAR
Продолжительность: 02: 05: 08
Качество видео: BDRip
Перевод: Дублированный
Субтитры: Русские, украинские, английские
Видео: HEVC/H.265, 1920x1080, ~7886 Kbps
Аудио 1: AC3, 6 ch, 640 Kbps - Русский (DUB, Blu-Ray)
Аудио 2: AC3, 6 ch, 640 Kbps - Украинский (DUB, Blu-Ray)
Аудио 3: AC3, 6 ch, 640 Kbps - Английский (Оригинал)x265 info: frame I: 1689, Avg QP: 17.61 kb/s: 27059.45
x265 info: frame P: 31284, Avg QP: 19.47 kb/s: 18065.30
x265 info: frame B: 147054, Avg QP: 21.42 kb/s: 5497.76
=============================================================
General
Unique ID : 227688822572103652398053515448292976558 (0xAB4B45AAED4E555D96FA5F312977A7AE)
Complete name : Трон. Наследие - TRON. Legacy (2010) IMAX. BDRip-HEVC 1080p - KORSAR.mkv
Format : Matroska
Format version : Version 4/Version 2
File size : 8.57 GiB
Duration : 2 h 5 min
Overall bit rate : 9 808 kb/s
Movie name : Трон. Наследие - TRON. Legacy (2010) IMAX_rip_by_Cthulhu
Encoded date : UTC 2019-04-27 18: 48: 09
Writing application : mkvmerge v28.2.0 (\'The Awakening\') 64-bit
Writing library : libebml v1.3.6 + libmatroska v1.4.9
Cover : Yes
Attachments : cover.jpg
Video
ID : 1
Format : HEVC
Format/Info : High Efficiency Video Coding
Format profile : [email protected]@High
Codec ID : V_MPEGH/ISO/HEVC
Duration : 2 h 5 min
Bit rate : 7 886 kb/s
Width : 1 920 pixels
Height : 1 080 pixels
Display aspect ratio : 16: 9
Frame rate mode : Constant
Frame rate : 23.976 (24000/1001) FPS
Color space : YUV
Chroma subsampling : 4: 2: 0
Bit depth : 10 bits
Bits/(Pixel*Frame) : 0.159
Stream size : 6.89 GiB (80%)
Writing library : x265 3.0_Au+18-768ab38fd5fd: WindowsMSVC 192064 bit 10bit
Encoding settings : cpuid=1111039/frame-threads=4/numa-pools=16/wpp/no-pmode/no-pme/no-psnr/no-ssim/log-level=2/input-csp=1/input-res=1920x1080/interlace=0/total-frames=180027/level-idc=41/high-tier=1/uhd-bd=0/ref=5/no-allow-non-conformance/no-repeat-t_heads/annexb/no-aud/no-hrd/info/hash=0/no-temporal-layers/open-gop/min-keyint=24/keyint=240/gop-lookahead=0/bframes=14/b-adapt=2/b-pyramid/bframe-bias=0/rc-lookahead=60/lookahead-slices=1/scenecut=40/radl=0/no-splice/no-intra-refresh/ctu=32/min-cu-size=8/rect/amp/max-tu-size=32/tu-inter-depth=4/tu-intra-depth=4/limit-tu=1/rdoq-level=2/dynamic-rd=0.00/no-ssim-rd/signhide/no-tskip/nr-intra=0/nr-inter=0/no-constrained-intra/no-strong-intra-smoothing/max-merge=5/limit-refs=3/limit-modes/me=3/subme=7/merange=57/temporal-mvp/weightp/weightb/no-analyze-src-pics/deblock=-3: -2/no-sao/no-sao-non-deblock/rd=6/no-early-skip/no-rskip/no-fast-intra/no-tskip-fast/no-cu-lossless/no-b-intra/no-splitrd-skip/rdpenalty=0/psy-rd=2.20/psy-rdoq=1.25/no-rd-refine/no-lossless/cbqpoffs=0/crqpoffs=0/rc=crf/crf=19.0/qcomp=0.65/qpstep=4/stats-write=0/stats-read=0/vbv-maxrate=50000/vbv-bufsize=50000/vbv-init=0.9/crf-max=0.0/crf-min=0.0/ipratio=1.40/pbratio=1.30/aq-mode=1/aq-strength=1.00/no-cutree/zone-count=1/zones: /start-frame=169848/end-frame=180026/qp=35/no-strict-cbr/qg-size=32/no-rc-grain/qpmax=69/qpmin=0/no-const-vbv/sar=1/overscan=0/videoformat=5/range=0/colorprim=1/transfer=1/colormatrix=1/chromaloc=0/display-window=0/max-cll=0, 0/min-luma=0/max-luma=1023/log2-max-poc-lsb=8/vui-timing-info/vui-hrd-info/slices=1/no-opt-qp-pps/no-opt-ref-list-length-pps/no-multi-pass-opt-rps/scenecut-bias=0.05/no-opt-cu-delta-qp/no-aq-motion/no-hdr/no-hdr-opt/no-dhdr10-opt/no-idr-recovery-sei/analysis-reuse-level=5/scale-factor=0/refine-intra=0/refine-inter=0/refine-mv=0/refine-ctu-distortion=0/no-limit-sao/ctu-info=0/no-lowpass-dct/refine-analysis-type=0/copy-pic=1/max-ausize-factor=1.0/no-dynamic-refine/no-single-sei/hevc-aq/no-svt/qp-adaptation-range=2.00
Language : English
Default : Yes
Forced : No
Color range : Limited
Color primaries : BT.709
Transfer characteristics : BT.709
Matrix coefficients : BT.709
Audio #1
ID : 2
Format : AC-3
Format/Info : Audio Coding 3
Mode extension : CM (complete main)
Format settings, Endianness : Big
Codec ID : A_AC3
Duration : 2 h 5 min
Bit rate mode : Constant
Bit rate : 640 kb/s
Channel(s) : 6 channels
Channel positions : Front: L C R, Side: L R, LFE
Sampling rate : 48.0 kHz
Frame rate : 31.250 FPS (1536 spf)
Compression mode : Lossy
Stream size : 573 MiB (7%)
Title : Rus Dub
Language : Russian
Default : Yes
Forced : No
Audio #2
ID : 3
Format : AC-3
Format/Info : Audio Coding 3
Mode extension : CM (complete main)
Format settings, Endianness : Big
Codec ID : A_AC3
Duration : 2 h 5 min
Bit rate mode : Constant
Bit rate : 640 kb/s
Channel(s) : 6 channels
Channel positions : Front: L C R, Side: L R, LFE
Sampling rate : 48.0 kHz
Frame rate : 31.250 FPS (1536 spf)
Compression mode : Lossy
Stream size : 573 MiB (7%)
Title : Ukr Dub
Language : Ukrainian
Default : No
Forced : No
Audio #3
ID : 4
Format : AC-3
Format/Info : Audio Coding 3
Mode extension : CM (complete main)
Format settings, Endianness : Big
Codec ID : A_AC3
Duration : 2 h 5 min
Bit rate mode : Constant
Bit rate : 640 kb/s
Channel(s) : 6 channels
Channel positions : Front: L C R, Side: L R, LFE
Sampling rate : 48.0 kHz
Frame rate : 31.250 FPS (1536 spf)
Compression mode : Lossy
Stream size : 573 MiB (7%)
Language : English
Default : No
Forced : No
Text #1
ID : 5
Format : UTF-8
Codec ID : S_TEXT/UTF8
Codec ID/Info : UTF-8 Plain Text
Duration : 1 h 58 min
Bit rate : 0 b/s
Count of elements : 12
Stream size : 345 Bytes (0%)
Title : Rus forced
Language : Russian
Default : No
Forced : No
Text #2
ID : 6
Format : UTF-8
Codec ID : S_TEXT/UTF8
Codec ID/Info : UTF-8 Plain Text
Duration : 1 h 59 min
Bit rate : 61 b/s
Count of elements : 1073
Stream size : 54.0 KiB (0%)
Title : Rus full
Language : Russian
Default : No
Forced : No
Text #3
ID : 7
Format : UTF-8
Codec ID : S_TEXT/UTF8
Codec ID/Info : UTF-8 Plain Text
Duration : 2 h 4 min
Bit rate : 0 b/s
Count of elements : 13
Stream size : 405 Bytes (0%)
Title : Ukr forced
Language : Ukrainian
Default : No
Forced : No
Text #4
ID : 8
Format : UTF-8
Codec ID : S_TEXT/UTF8
Codec ID/Info : UTF-8 Plain Text
Duration : 2 h 4 min
Bit rate : 54 b/s
Count of elements : 1074
Stream size : 50.0 KiB (0%)
Title : Ukr full
Language : Ukrainian
Default : No
Forced : No
Text #5
ID : 9
Format : UTF-8
Codec ID : S_TEXT/UTF8
Codec ID/Info : UTF-8 Plain Text
Duration : 1 h 56 min
Bit rate : 36 b/s
Count of elements : 1061
Stream size : 31.3 KiB (0%)
Language : English
Default : No
Forced : No
Menu
00: 00: 00.000 : en: The Same Team/Одна команда
00: 04: 07.163 : en: All Grown Up/Все взрослеют
00: 14: 44.133 : en: A Visit from a Friend/Визит друга
00: 23: 15.602 : en: The Grid/Система
00: 26: 52.694 : en: Games/Игры
00: 36: 12.211 : en: Not Your Father/Я не твой отец
00: 38: 35.980 : en: Lightcycle Battle/Битва на светоциклах
00: 46: 52.726 : en: The Real Kevin Flynn/Настояший Кевин Флинн
00: 53: 03.763 : en: Father\'s Wisdom/Отцовская мудрость
01: 04: 54.181 : en: Castor/Кастор
01: 13: 47.422 : en: Zuse/Зюс
01: 19: 00.944 : en: She\'s An ISO/Она – изоморф!
01: 22: 40.455 : en: Catching Up/Погоня
01: 25: 50.895 : en: A Deal/Сделка
01: 28: 11.828 : en: A Rescue/Спасение
01: 31: 42.413 : en: Building An Army/Создание армии
01: 43: 13.061 : en: Air Battle/Битва в воздухе
01: 48: 18.033 : en: Flynn\'s Sacrifice/Жертва Флинна
01: 54: 48.381 : en: You Were Right/Ты был прав
01: 58: 03.659 : en: End Credits/Финальные титры

Скриншоты для ознакомления



Все одноименные релизы в Клубе
Время раздачи: 24/7 (мультитрекерная раздача)

Другие торренты по теме:

  • Трон: Наследие / TRON: Legacy (2010) BDRemux [H.264 / 1080p] [IMAX Edition] [hand made 16:9]
  • Трон: Наследие / TRON: Legacy (2010) BDRip [H.265 / 1080p-LQ] [10-bit]
  • Трон: Наследие / TRON: Legacy (2010) BDRip [H.264 / 720p-LQ] [IMAX]
  • Трон: Наследие / TRON: Legacy (2010) Blu-ray [H.264 / 1080p]
  • Трон: Наследие / TRON: Legacy (2010) WEB-DL [H.264 / 1080p-LQ] [Open Matte]
  • Трон: Наследие / TRON: Legacy (2010) Hybrid [H.264 / 720p] [Open Matte]
  • Трон: Наследие / TRON: Legacy (2010) BDRemux [H.264 / 1080p] [IMAX]
  • Witches Legacy 6: The Dark Throne / Наследие ведьм 6: Темный Трон (2015) [Ru] (1.0) Unofficial [Collectors Edition / Коллекционное издание]

  • Посетители, находящиеся в группе Гости, не могут оставлять комментарии в данной новости.