Подписывайся на наш канал в Telegram https://t.me/torrentok и получи доступ к торрентам без ограничений!

Чарли и шоколадная фабрика / Charlie and the Chocolate Factory (2005) BDRip [H.264 / 720p] торрент скачать бесплатно

Чарли и шоколадная фабрика / Charlie and the Chocolate Factory (2005) BDRip [H.264 / 720p]Производство: США/Warner Bros., Village Roadshow Pictures, The Zanuck Company
Жанр: мюзикл, фэнтези, комедия, приключения, семейный
Режиссер: Тим Бёртон

Актеры
Джонни Депп, Фредди Хаймор, Хелена Бонем Картер, Ноа Тейлор, Дип Рой, Дэвид Келли, Анна-София Робб, Кристофер Ли, Адам Годли, Мисси Пайл

Описание

Какие чудеса ждут вас на фабрике Вилли Вонки? Только представьте: травяные луга из сладкого мятного сахара в Шоколадной Комнате ... Можно проплыть по Шоколадной реке на розовой сахарной лодке ... Или поставить эксперименты в Комнате изобретений с леденцами, которые никогда не тают ... Понаблюдать за дрессированными белками в Ореховой Комнате или отправиться в стеклянном лифте в Телевизионную Комнату. Вы найдете слишком много смешного, чуть таинственного и настолько захватывающего в этом путешествии, что оно станет настолько же приятным и сладким для вас, как восхитительная сладкая палочка с розовой сливочной помадкой от Вилли Вонки.


Возраст: 6+ (зрителям, достигшим 6 лет)
Рейтинг MPAA: PG (рекомендуется присутствие родителей)
Продолжительность: 01: 55: 23
Качество видео: BDRip
Перевод: Дублированный, двухголосый профессиональный
Субтитры: русские, английские, французские, немецкие, итальянские, испанские, шведские
Видео: AVC/H.264, 1280x720, ~4700 kbps
Аудио 1: AC3, 6 ch, 640 kbps, Русский (DUB Blu-ray CEE)
Аудио 2: AC3, 6 ch, 640 kbps, Русский (DVO П.Гланц и И.Королёва)
Аудио 3: AC3, 6 ch, 448 kbps, Русский (DVO Tycoon)
Аудио 4: AC3, 6 ch, 640 kbps, Английский
Общее
Уникальный идентификатор : 220222208100876603810215871448500338755 (0xA5AD4126EA67714CBECF9B20DE4B0043)
Полное имя : F: CINEMACharlie.and.the.Chocolate.Factory.2005.BDrip.720p.mkv
Формат : Matroska
Версия формата : Version 4
Размер файла : 5, 70 Гбайт
Продолжительность : 1 ч. 55 м.
Общий поток : 7 070 Кбит/сек
Название фильма : Charlie And The Chocolate Factory (2005)
Дата кодирования : UTC 2020-08-31 05: 28: 40
Программа кодирования : mkvmerge v8.2.0 (\'World of Adventure\') 64bit
Библиотека кодирования : libebml v1.3.1 + libmatroska v1.4.2
Видео
Идентификатор : 1
Формат : AVC
Формат/Информация : Advanced Video Codec
Профиль формата : [email protected]
Настройки формата : CABAC/9 Ref Frames
Параметр CABAC формата : Да
Параметр RefFrames формата : 9 кадров
Идентификатор кодека : V_MPEG4/ISO/AVC
Продолжительность : 1 ч. 55 м.
Битрейт : 4 700 Кбит/сек
Ширина : 1 280 пикселей
Высота : 720 пикселей
Соотношение сторон : 16: 9
Режим частоты кадров : Постоянный
Частота кадров : 23, 976 (24000/1001) кадра/сек
Цветовое пространство : YUV
Субдискретизация насыщенности : 4: 2: 0
Битовая глубина : 8 бит
Тип развёртки : Прогрессивная
Бит/(Пиксели*Кадры) : 0.213
Размер потока : 3, 79 Гбайт (66%)
Заголовок : Charlie and the Chocolate Factory
Библиотека кодирования : x264 core 116 r2019 9cc407d
Настройки программы : cabac=1/ref=9/deblock=1: -3: -3/analyse=0x3: 0x133/me=umh/subme=10/psy=1/psy_rd=1.00: 0.00/mixed_ref=1/me_range=48/chroma_me=1/trellis=2/8x8dct=1/cqm=0/deadzone=21, 11/fast_pskip=1/chroma_qp_offset=-2/threads=6/sliced_threads=0/nr=0/decimate=1/interlaced=0/bluray_compat=0/constrained_intra=0/bframes=7/b_pyramid=2/b_adapt=2/b_bias=0/direct=3/weightb=1/open_gop=0/weightp=2/keyint=250/keyint_min=23/scenecut=40/intra_refresh=0/rc=2pass/mbtree=0/bitrate=4700/ratetol=1.0/qcomp=0.60/qpmin=0/qpmax=69/qpstep=4/cplxblur=20.0/qblur=0.5/ip_ratio=1.40/pb_ratio=1.30/aq=1: 0.70
Язык : English
Default : Да
Forced : Нет
Аудио #1
Идентификатор : 2
Формат : AC-3
Формат/Информация : Audio Coding 3
Коммерческое название : Dolby Digital
Идентификатор кодека : A_AC3
Продолжительность : 1 ч. 55 м.
Вид битрейта : Постоянный
Битрейт : 640 Кбит/сек
Каналы : 6 каналов
Channel layout : L R C LFE Ls Rs
Частота : 48, 0 КГц
Частота кадров : 31, 250 кадров/сек (1536 SPF)
Метод сжатия : С потерями
Размер потока : 528 Мбайт (9%)
Заголовок : DUB Blu-ray CEE
Язык : Russian
Service kind : Complete Main
Default : Да
Forced : Нет
Аудио #2
Идентификатор : 3
Формат : AC-3
Формат/Информация : Audio Coding 3
Коммерческое название : Dolby Digital
Идентификатор кодека : A_AC3
Продолжительность : 1 ч. 55 м.
Вид битрейта : Постоянный
Битрейт : 640 Кбит/сек
Каналы : 6 каналов
Channel layout : L R C LFE Ls Rs
Частота : 48, 0 КГц
Частота кадров : 31, 250 кадров/сек (1536 SPF)
Метод сжатия : С потерями
Размер потока : 528 Мбайт (9%)
Заголовок : DVO П. Гланц и И. Королёва
Язык : Russian
Service kind : Complete Main
Default : Нет
Forced : Нет
Аудио #3
Идентификатор : 4
Формат : AC-3
Формат/Информация : Audio Coding 3
Коммерческое название : Dolby Digital
Идентификатор кодека : A_AC3
Продолжительность : 1 ч. 55 м.
Вид битрейта : Постоянный
Битрейт : 448 Кбит/сек
Каналы : 6 каналов
Channel layout : L R C LFE Ls Rs
Частота : 48, 0 КГц
Частота кадров : 31, 250 кадров/сек (1536 SPF)
Метод сжатия : С потерями
Размер потока : 370 Мбайт (6%)
Заголовок : DVO Tycoon
Язык : Russian
Service kind : Complete Main
Default : Нет
Forced : Нет
Аудио #4
Идентификатор : 5
Формат : AC-3
Формат/Информация : Audio Coding 3
Коммерческое название : Dolby Digital
Идентификатор кодека : A_AC3
Продолжительность : 1 ч. 55 м.
Вид битрейта : Постоянный
Битрейт : 640 Кбит/сек
Каналы : 6 каналов
Channel layout : L R C LFE Ls Rs
Частота : 48, 0 КГц
Частота кадров : 31, 250 кадров/сек (1536 SPF)
Метод сжатия : С потерями
Размер потока : 528 Мбайт (9%)
Заголовок : Original
Язык : English
Service kind : Complete Main
Default : Нет
Forced : Нет
Текст #1
Идентификатор : 6
Формат : UTF-8
Идентификатор кодека : S_TEXT/UTF8
Идентификатор кодека/Информация : UTF-8 Plain Text
Продолжительность : 1 ч. 54 м.
Битрейт : 79 бит/сек
Count of elements : 1214
Размер потока : 67, 1 Кбайт (0%)
Язык : Russian
Default : Нет
Forced : Нет
Текст #2
Идентификатор : 7
Формат : UTF-8
Идентификатор кодека : S_TEXT/UTF8
Идентификатор кодека/Информация : UTF-8 Plain Text
Продолжительность : 1 ч. 51 м.
Битрейт : 54 бит/сек
Count of elements : 1211
Размер потока : 44, 6 Кбайт (0%)
Язык : English
Default : Нет
Forced : Нет
Текст #3
Идентификатор : 8
Формат : UTF-8
Идентификатор кодека : S_TEXT/UTF8
Идентификатор кодека/Информация : UTF-8 Plain Text
Продолжительность : 1 ч. 54 м.
Битрейт : 43 бит/сек
Count of elements : 1143
Размер потока : 36, 2 Кбайт (0%)
Язык : French
Default : Нет
Forced : Нет
Текст #4
Идентификатор : 9
Формат : UTF-8
Идентификатор кодека : S_TEXT/UTF8
Идентификатор кодека/Информация : UTF-8 Plain Text
Продолжительность : 1 ч. 54 м.
Битрейт : 60 бит/сек
Count of elements : 1253
Размер потока : 50, 4 Кбайт (0%)
Язык : German
Default : Нет
Forced : Нет
Текст #5
Идентификатор : 10
Формат : UTF-8
Идентификатор кодека : S_TEXT/UTF8
Идентификатор кодека/Информация : UTF-8 Plain Text
Продолжительность : 1 ч. 54 м.
Битрейт : 54 бит/сек
Count of elements : 1177
Размер потока : 45, 3 Кбайт (0%)
Язык : Italian
Default : Нет
Forced : Нет
Текст #6
Идентификатор : 11
Формат : UTF-8
Идентификатор кодека : S_TEXT/UTF8
Идентификатор кодека/Информация : UTF-8 Plain Text
Продолжительность : 1 ч. 54 м.
Битрейт : 50 бит/сек
Count of elements : 1219
Размер потока : 42, 0 Кбайт (0%)
Язык : Spanish
Default : Нет
Forced : Нет
Текст #7
Идентификатор : 12
Формат : UTF-8
Идентификатор кодека : S_TEXT/UTF8
Идентификатор кодека/Информация : UTF-8 Plain Text
Продолжительность : 1 ч. 54 м.
Битрейт : 42 бит/сек
Count of elements : 823
Размер потока : 35, 4 Кбайт (0%)
Язык : Swedish
Default : Нет
Forced : Нет
Меню
00: 00: 00.000 : en: Candy-Coated Credits
00: 04: 14.129 : en: Years Ago
00: 07: 54.766 : en: Chocolate Palace
00: 09: 53.885 : en: It\'s A Mystery
00: 13: 32.311 : en: Golden Ticket Mania
00: 16: 45.796 : en: Augustus Gloop and Veruca Salt
00: 19: 52.775 : en: Birthday Bar
00: 22: 01.320 : en: Violet Beauregarde and Mike Teavee
00: 24: 49.863 : en: A Setback and a Fling
00: 27: 38.782 : en: Finding Gold
00: 31: 26.760 : en: Are You a Dummy?
00: 33: 04.733 : en: Really Willy Wonka
00: 38: 06.784 : en: Let\'s Be Friends
00: 40: 33.848 : en: Everything\'s Eatable
00: 44: 25.872 : en: Loompaland
00: 48: 24.318 : en: Colg and Song: Augustus Gloop
00: 54: 34.480 : en: Pink Sugar Boat
00: 57: 04.004 : en: Dr. Wilbur Wonka
00: 59: 33.570 : en: Chocolate River Rapids
01: 01: 44.743 : en: Turning Violet
01: 07: 40.848 : en: Song: Violet Beauregarde
01: 10: 07.120 : en: First Candy Flashback
01: 12: 07.823 : en: Squirrels and Bad Nuts
01: 17: 23.180 : en: Song: Veruca Salt
01: 20: 19.106 : en: Glass Elevator Flashback
01: 22: 21.728 : en: Chocolate Transmission
01: 28: 12.704 : en: Song: Mike Treavee
01: 33: 22.806 : en: Up and Out
01: 36: 52.557 : en: Winner\'s Choice
01: 41: 16.028 : en: Charlie\'s Advice
01: 44: 22.006 : en: Something Even Better
01: 48: 50.524 : en: End Credits

Скриншоты для ознакомления



Все одноименные релизы в Клубе
Время раздачи: c 5 до 19 мск (до появления первых 3-5 скачавших)

Другие торренты по теме:

  • Чарли и шоколадная фабрика / Charlie and the Chocolate Factory (2005) BDRip [H.265 / 1080p-LQ]
  • Чарли и шоколадная фабрика / Charlie and the Chocolate Factory (2005) BDRip [H.265 / 1080p-LQ] [10-bit]

  • Посетители, находящиеся в группе Гости, не могут оставлять комментарии в данной новости.