Подписывайся на наш канал в Telegram https://t.me/torrentok и получи доступ к торрентам без ограничений!

Черная вдова / Black Widow (1987) BDRip [H.264 / 720p-LQ] [PR] торрент скачать бесплатно

Черная вдова / Black Widow (1987) BDRip [H.264 / 720p-LQ] [PR]Производство: США/20th Century Fox Film Corporation, Amercent Films, American Entertainment Partners L.P
Жанр: Триллер, Драма, Криминал
Режиссер: Боб Рейфелсон
Продюсер: Харольд Шнайдер, Марк Лоуренс

Актеры
Дебра Уингер, Тереза Расселл, Сами Фре, Деннис Хоппер, Николь Уильямсон, Терри О\'Куинн, Джеймс Хонг, Дайан Лэдд, Д.В. Моффетт, Лоис Смит

Описание

Эффектная и изящная Кэтрин прекрасно устраивается в жизни с помощью мужчин. Ей поразительно везет: один за другим ее обеспеченные мужья умирают от загадочных болезней и завещают любимой жене все, что имеют. Единственный минус такого везения в том, что тяжело избежать подозрений, но ведь богатые так же смертны как все мы. Да и кому придет в голову связывать между собой смерть абсолютно разных людей, в разное время, в далеких друг от друга местах. Тем более никто не заподозрит, что их жены Кэтрин, Мариэль, Маргарет и Рене — одна и та же женщина. Прекрасная черная вдова не сомневается в своей безопасности, пока на ее след не выходит детектив Алекс Барнс.


Возраст: 16+ (зрителям, достигшим 16 лет)
Рейтинг MPAA: R (лицам до 17 лет обязательно присутствие взрослого)
Релиз от: ярусс
Продолжительность: 01: 41: 51
Качество видео: BDRip
Перевод: Многоголосый профессиональный (Лицензия от 20th Century Fox)
Язык озвучки: Русский
Субтитры: Нет
Видео: AVC/H.264, 1280x694, ~3380 kbps
Аудио 1: AC3, 6 ch, 448 kbps - Русский (MVO), Лицензия
Аудио 2: AC3, 2 ch, 224 kbps - Английский (Оригинал)
Complete name : D: Black.Widow.1987.BDRip-AVC.2, 84gb.mkv
Format : Matroska
File size : 2.85 GiB
Duration : 1h 41mn
Overall bit rate : 4 006 Kbps
Encoded date : UTC 2018-12-02 00: 09: 32
Writing application : Lavf55.11.101
Writing library : Lavf55.11.101
Video
ID : 1
Format : AVC
Format/Info : Advanced Video Codec
Format profile : [email protected]
Format settings, CABAC : Yes
Format settings, ReFrames : 10 frames
Codec ID : V_MPEG4/ISO/AVC
Duration : 1h 41mn
Bit rate : 3 378 Kbps
Width : 1 280 pixels
Height : 694 pixels
Display aspect ratio : 1.850
Frame rate mode : Variable
Frame rate : 23.976 fps
Color space : YUV
Chroma subsampling : 4: 2: 0
Bit depth : 8 bits
Scan type : Progressive
Bits/(Pixel*Frame) : 0.159
Stream size : 2.32 GiB (81%)
Writing library : x264 core 135 r2345
Encoding settings : cabac=1/ref=10/deblock=1: -1: -1/analyse=0x3: 0x113/me=umh/subme=10/psy=1/psy_rd=1.00: 0.20/mixed_ref=0/me_range=16/chroma_me=1/trellis=2/8x8dct=1/cqm=0/deadzone=21, 11/fast_pskip=0/chroma_qp_offset=-3/threads=3/lookahead_threads=1/sliced_threads=0/nr=0/decimate=0/interlaced=0/bluray_compat=0/constrained_intra=0/bframes=6/b_pyramid=2/b_adapt=2/b_bias=0/direct=3/weightb=1/open_gop=0/weightp=2/keyint=230/keyint_min=23/scenecut=40/intra_refresh=0/rc_lookahead=60/rc=abr/mbtree=1/bitrate=3378/ratetol=1.0/qcomp=0.60/qpmin=1/qpmax=69/qpstep=4/vbv_maxrate=24000/vbv_bufsize=24000/nal_hrd=none/ip_ratio=1.40/aq=2: 0.80
Audio #1
ID : 2
Format : AC-3
Format/Info : Audio Coding 3
Mode extension : CM (complete main)
Codec ID : A_AC3
Duration : 1h 41mn
Bit rate mode : Constant
Bit rate : 448 Kbps
Channel(s) : 6 channels
Channel positions : Front: L C R, Side: L R, LFE
Sampling rate : 48.0 KHz
Bit depth : 16 bits
Video delay : 42ms
Stream size : 326 MiB (11%)
Language : Russian
Audio #2
ID : 3
Format : AC-3
Format/Info : Audio Coding 3
Mode extension : CM (complete main)
Codec ID : A_AC3
Duration : 1h 41mn
Bit rate mode : Constant
Bit rate : 224 Kbps
Channel(s) : 2 channels
Channel positions : Front: L R
Sampling rate : 48.0 KHz
Bit depth : 16 bits
Stream size : 163 MiB (6%)
Language : English

Другие торренты по теме:

  • Максим Шаттам | Черная вдова (2015) [FB2]
  • Черная вдова / Black Widow (1987) BDRemux [H.264 / 1080p]
  • Черная вдова / Black Widow (1987) DVDRip [H.264]
  • Черная вдова / Black Widow (1987) BDRip [H.264]
  • Евгения Горская | Белая невеста, черная вдова (2017) [FB2]
  • Черная вдова / Black Widow (1954) DVDRip [H.264] [VO]
  • Маргарет Штоль | Черная Вдова. Возмездие (2019) [FB2]

  • Посетители, находящиеся в группе Гости, не могут оставлять комментарии в данной новости.