Подписывайся на наш канал в Telegram https://t.me/torrentok и получи доступ к торрентам без ограничений!

Малышка на миллион / Million Dollar Baby (2004) BDRip [H.265 / 1080p-LQ] [10-bit] торрент скачать бесплатно

Малышка на миллион / Million Dollar Baby (2004) BDRip [H.265 / 1080p-LQ] [10-bit]Производство: США/Warner Bros., Lakeshore Entertainment, Malpaso Productions
Жанр: Драма, спорт
Режиссер: Клинт Иствуд

Актеры
Клинт Иствуд, Хилари Суэнк, Морган Фримен, Джей Барушель, Майк Колтер, Люсия Рижкер, Брайан Ф. О’Бирн, Энтони Маки, Марго Мартиндейл, Рики Линдхоум

Описание
Тренеру по боксу Фрэнку Данну так и не удалось воспитать чемпиона. Он владеет спортивным залом в Лос-Анджелесе, где всё ещё проводит тренировки. Дочь не отвечает на его письма, а его лучший боец подписал контракт с другим менеджером. Неожиданно в жизни Фрэнка появляется Мэгги Фицжеральд, 31-летняя официантка, мечтающая стать боксером. Фрэнк не желает тренировать женщину, но упорство Мэгги заставляет его передумать. Впереди - их главное сражение, требующее собрать в кулак всю волю и мужество.


Возраст: 12+ (зрителям, достигшим 12 лет)
Рейтинг MPAA: PG-13 (детям до 13 лет просмотр нежелателен)
Релиз от: Spartanec (HEVC-CLUB)
Продолжительность: 02: 12: 32
Качество видео: BDRip
Перевод: Дублированный, авторский
Субтитры: Русские, английские
Видео: HEVC/H.265, 1920x800, ~5187 Kbps
Аудио 1: AC3, 6 ch, 640 Kbps - Русский, AVO (Д. Есарев)
Аудио 2: AC3, 6 ch, 640 Kbps - Русский, AVO (Ю. Живов)
Аудио 3: AC3, 6 ch, 448 Kbps - Русский, дублированный (Лицензия)
Аудио 4: AC3, 2 ch, 192 Kbps - Русский, AVO (С. Визгунов)
Аудио 5: AC3, 6 ch, 640 Kbps - Английский
======================================
x265 info: frame I: 1610, Avg QP: 16.53 kb/s: 22420.02
x265 info: frame P: 34681, Avg QP: 18.05 kb/s: 11980.53
x265 info: frame B: 154375, Avg QP: 20.84 kb/s: 3480.61
x265 info: Weighted P-Frames: Y: 4.4% UV: 3.4%
x265 info: Weighted B-Frames: Y: 3.6% UV: 2.5%
x265 info: consecutive B-frames: 5.8% 2.0% 5.2% 25.8% 10.7% 32.4% 5.9% 8.4% 1.4% 1.1% 0.4% 0.4% 0.3% 0.3%
encoded 190666 frames in 318939.39s (0.60 fps), 5186.62 kb/s, Avg QP: 20.29
======================================
Общее
Уникальный идентификатор : 243050863854397998073934135186925730862 (0xB6D9E4C7994F7813BE3FA61FD12ABC2E)
Полное имя : R: Малышка на миллион (2004) BDRip 1080p HEVC 10bit by Spartanec.mkv
Формат : Matroska
Версия формата : Version 4/Version 2
Размер файла : 7, 18 Гбайт
Продолжительность : 2 ч. 12 м.
Общий поток : 7751 Кбит/сек
Название фильма : by Spartanec
Дата кодирования : UTC 2020-08-29 13: 20: 09
Программа кодирования : mkvmerge v7.0.0 (\'Where We Going\') 64bit built on Jun 9 2014 15: 16: 27
Библиотека кодирования : libebml v1.3.0 + libmatroska v1.4.1
Обложка : Yes
Attachments : cover.jpg
Видео
Идентификатор : 1
Формат : HEVC
Формат/Информация : High Efficiency Video Coding
Профиль формата : [email protected]@High
Идентификатор кодека : V_MPEGH/ISO/HEVC
Продолжительность : 2 ч. 12 м.
Битрейт : 5187 Кбит/сек
Ширина : 1920 пикселей
Высота : 800 пикселей
Соотношение сторон : 2, 40: 1
Режим частоты кадров : Постоянный
Частота кадров : 23, 976 (23976/1000) кадра/сек
Частота кадров в оригинале : 23, 976 (24000/1001) кадра/сек
Цветовое пространство : YUV
Субдискретизация насыщенности : 4: 2: 0
Битовая глубина : 10 бит
Бит/(Пиксели*Кадры) : 0.141
Размер потока : 4, 80 Гбайт (67%)
Заголовок : Spartanec
Библиотека кодирования : x265 3.4+4-g3ae3d7116: WindowsGCC 10.2.064 bit 10bit
Настройки программы : cpuid=1111039/frame-threads=4/numa-pools=16/wpp/no-pmode/no-pme/no-psnr/no-ssim/log-level=2/input-csp=1/input-res=1920x800/interlace=0/total-frames=190666/level-idc=41/high-tier=1/uhd-bd=0/ref=5/no-allow-non-conformance/no-repeat-t_heads/annexb/no-aud/no-hrd/info/hash=0/no-temporal-layers/open-gop/min-keyint=23/keyint=240/gop-lookahead=0/bframes=13/b-adapt=2/b-pyramid/bframe-bias=0/rc-lookahead=60/lookahead-slices=1/scenecut=40/hist-scenecut=0/radl=0/no-splice/no-intra-refresh/ctu=32/min-cu-size=8/rect/amp/max-tu-size=32/tu-inter-depth=4/tu-intra-depth=4/limit-tu=1/rdoq-level=1/dynamic-rd=0.00/no-ssim-rd/signhide/no-tskip/nr-intra=0/nr-inter=0/no-constrained-intra/no-strong-intra-smoothing/max-merge=5/limit-refs=0/no-limit-modes/me=3/subme=7/merange=57/temporal-mvp/no-frame-dup/no-hme/weightp/weightb/no-analyze-src-pics/deblock=-2: -2/no-sao/no-sao-non-deblock/rd=6/selective-sao=0/no-early-skip/no-rskip/no-fast-intra/no-tskip-fast/no-cu-lossless/b-intra/no-splitrd-skip/rdpenalty=0/psy-rd=2.00/psy-rdoq=1.00/no-rd-refine/no-lossless/cbqpoffs=0/crqpoffs=0/rc=crf/crf=19.5/qcomp=0.70/qpstep=4/stats-write=0/stats-read=0/vbv-maxrate=50000/vbv-bufsize=50000/vbv-init=0.9/crf-max=0.0/crf-min=0.0/ipratio=1.40/pbratio=1.30/aq-mode=2/aq-strength=1.00/no-cutree/zone-count=0/no-strict-cbr/qg-size=32/no-rc-grain/qpmax=69/qpmin=0/no-const-vbv/sar=1/overscan=0/videoformat=5/range=0/colorprim=1/transfer=1/colormatrix=1/chromaloc=0/display-window=0/cll=0, 0/min-luma=0/max-luma=1023/log2-max-poc-lsb=8/vui-timing-info/vui-hrd-info/slices=1/no-opt-qp-pps/no-opt-ref-list-length-pps/no-multi-pass-opt-rps/scenecut-bias=0.05/hist-threshold=0.01/no-opt-cu-delta-qp/no-aq-motion/no-hdr10/no-hdr10-opt/no-dhdr10-opt/no-idr-recovery-sei/analysis-reuse-level=0/analysis-save-reuse-level=0/analysis-load-reuse-level=0/scale-factor=0/refine-intra=0/refine-inter=0/refine-mv=0/refine-ctu-distortion=0/no-limit-sao/ctu-info=0/no-lowpass-dct/refine-analysis-type=0/copy-pic=1/max-ausize-factor=1.0/no-dynamic-refine/no-single-sei/no-hevc-aq/no-svt/no-field/qp-adaptation-range=1.00/no-scenecut-aware-qpconformance-window-offsets/right=0/bottom=0/decoder-max-rate=0
Язык : English
Default : Да
Forced : Нет
Цветовой диапазон : Limited
Основные цвета : BT.709
Характеристики трансфера : BT.709
Коэффициенты матрицы : BT.709
Аудио #1
Идентификатор : 2
Формат : AC-3
Формат/Информация : Audio Coding 3
Идентификатор кодека : A_AC3
Продолжительность : 2 ч. 12 м.
Вид битрейта : Постоянный
Битрейт : 640 Кбит/сек
Каналы : 6 каналов
Расположение каналов : Front: L C R, Side: L R, LFE
Частота : 48, 0 КГц
Частота кадров : 31, 250 кадров/сек (1536 SPF)
Битовая глубина : 16 бит
Метод сжатия : С потерями
Размер потока : 607 Мбайт (8%)
Заголовок : AVO (Д. Есарев)
Язык : Russian
ServiceKind/String : Complete Main
Default : Нет
Forced : Нет
Аудио #2
Идентификатор : 3
Формат : AC-3
Формат/Информация : Audio Coding 3
Идентификатор кодека : A_AC3
Продолжительность : 2 ч. 12 м.
Вид битрейта : Постоянный
Битрейт : 640 Кбит/сек
Каналы : 6 каналов
Расположение каналов : Front: L C R, Side: L R, LFE
Частота : 48, 0 КГц
Частота кадров : 31, 250 кадров/сек (1536 SPF)
Битовая глубина : 16 бит
Метод сжатия : С потерями
Размер потока : 607 Мбайт (8%)
Заголовок : AVO (Ю. Живов)
Язык : Russian
ServiceKind/String : Complete Main
Default : Нет
Forced : Нет
Аудио #3
Идентификатор : 4
Формат : AC-3
Формат/Информация : Audio Coding 3
Идентификатор кодека : A_AC3
Продолжительность : 2 ч. 12 м.
Вид битрейта : Постоянный
Битрейт : 448 Кбит/сек
Каналы : 6 каналов
Расположение каналов : Front: L C R, Side: L R, LFE
Частота : 48, 0 КГц
Частота кадров : 31, 250 кадров/сек (1536 SPF)
Битовая глубина : 16 бит
Метод сжатия : С потерями
Размер потока : 425 Мбайт (6%)
Заголовок : Дубляж
Язык : Russian
ServiceKind/String : Complete Main
Default : Да
Forced : Нет
Аудио #4
Идентификатор : 5
Формат : AC-3
Формат/Информация : Audio Coding 3
Идентификатор кодека : A_AC3
Продолжительность : 2 ч. 12 м.
Вид битрейта : Постоянный
Битрейт : 192 Кбит/сек
Каналы : 2 канала
Расположение каналов : Front: L R
Частота : 48, 0 КГц
Частота кадров : 31, 250 кадров/сек (1536 SPF)
Битовая глубина : 16 бит
Метод сжатия : С потерями
Размер потока : 182 Мбайт (2%)
Заголовок : AVO (С. Визгунов)
Язык : Russian
ServiceKind/String : Complete Main
Default : Нет
Forced : Нет
Аудио #5
Идентификатор : 6
Формат : AC-3
Формат/Информация : Audio Coding 3
Идентификатор кодека : A_AC3
Продолжительность : 2 ч. 12 м.
Вид битрейта : Постоянный
Битрейт : 640 Кбит/сек
Каналы : 6 каналов
Расположение каналов : Front: L C R, Side: L R, LFE
Частота : 48, 0 КГц
Частота кадров : 31, 250 кадров/сек (1536 SPF)
Битовая глубина : 16 бит
Метод сжатия : С потерями
Размер потока : 607 Мбайт (8%)
Заголовок : Оригинал
Язык : English
ServiceKind/String : Complete Main
Default : Нет
Forced : Нет
Текст #1
Идентификатор : 7
Формат : UTF-8
Идентификатор кодека : S_TEXT/UTF8
Идентификатор кодека/Информация : UTF-8 Plain Text
Продолжительность : 2 ч. 8 м.
Битрейт : 99 бит/сек
ElementCount : 1512
Размер потока : 93, 5 Кбайт (0%)
Язык : Russian
Default : Да
Forced : Нет
Текст #2
Идентификатор : 8
Формат : UTF-8
Идентификатор кодека : S_TEXT/UTF8
Идентификатор кодека/Информация : UTF-8 Plain Text
Продолжительность : 2 ч. 6 м.
Битрейт : 50 бит/сек
ElementCount : 1041
Размер потока : 47, 1 Кбайт (0%)
Язык : English
Default : Нет
Forced : Нет
Меню
00: 00: 00.000 : : Глава 01
00: 06: 38.398 : : Глава 02
00: 14: 11.433 : : Глава 03
00: 17: 39.057 : : Глава 04
00: 23: 02.547 : : Глава 05
00: 28: 04.140 : : Глава 06
00: 31: 49.991 : : Глава 07
00: 35: 03.893 : : Глава 08
00: 42: 16.617 : : Глава 09
00: 48: 40.208 : : Глава 10
00: 55: 55.477 : : Глава 11
00: 59: 14.467 : : Глава 12
01: 06: 18.724 : : Глава 13
01: 10: 59.212 : : Глава 14
01: 12: 41.315 : : Глава 15
01: 19: 02.279 : : Глава 16
01: 21: 17.914 : : Глава 17
01: 24: 51.086 : : Глава 18
01: 33: 03.786 : : Глава 19
01: 39: 32.424 : : Глава 20
01: 43: 23.906 : : Глава 21
01: 48: 13.695 : : Глава 22
01: 54: 03.753 : : Глава 23
01: 58: 35.983 : : Глава 24
02: 05: 48.082 : : Глава 25
02: 08: 07.846 : : Глава 26

Другие торренты по теме:

  • Малышка на миллион / Million Dollar Baby (2004) [H.264 / 720р-LQ] BDRip

  • Посетители, находящиеся в группе Гости, не могут оставлять комментарии в данной новости.