Подписывайся на наш канал в Telegram https://t.me/torrentok и получи доступ к торрентам без ограничений!

Прощай, мистер Неудачник / Xia Luo te fan nao / Goodbye Mr. Loser (2015) HDRip [DVO] торрент скачать бесплатно

Прощай, мистер Неудачник / Xia Luo te fan nao / Goodbye Mr. Loser (2015) HDRip [DVO]Производство: Китай, Beijing Mahua Funage Company
Жанр: Комедия, мелодрама, фэнтези
Режиссер: Пэн Дамо, Янь Фэй
Продюсер: Hong-Tao Liu, Тянь Тянь, Цао Хуаи

Актеры
Ай Лунь, Чан Юань, Ли Личунь, Ли Пин, Ма Ли, Шэнь Тэн, Сун Ян, Тянь Юй, Ван Чэнсы, Ван Чжи

Описание

Неудачник Сяо Ло ничего не добился в жизни не знает, чего он на самом деле хочет. Однажды он попадает на свадьбу к девушке, в которую был влюблен еще в школе, и во время торжества происходит нечто странное. Сяо Ло возвращается в свои школьные годы, и чтобы теперь-то уж точно не профукать свой шанс, становится автором и исполнителем хитовых песен того времени до момента, когда настоящие авторы их сочинили.


Релиз от: Rip by vitolinform
Продолжительность: 01: 43: 48
Качество видео: HDRip url=4XSRU1Thayqmng/url
Перевод: Двуголосый любительский (RealFake)
Субтитры: Английские - отдельным файлом
Видео: Xvid, 720x304, ~1367 kbps
Аудио 1: AC3, 2 ch, 192 Кbps | Русский (DVO, RealFake)
Аудио 2: AC3, 6 ch, 448 Кbps | Китайский
Общее
Полное имя : C: Proshchaj.mister.Neudachnik.2015.HDRipProshchaj.mister.Neudachnik.2015.HDRip.avi
Формат : AVI
Формат/Информация : Audio Video Interleave
Размер файла : 1, 47 Гбайт
Продолжительность : 1 ч. 43 м.
Общий поток : 2 021 Кбит/сек
Название фильма : Прощай, мистер Неудачник/Xia Luo te fan nao/Goodbye Mr. Loser (2015)
Режиссёр : Пэн Дамо/Da-Mo Peng, Янь Фэй/Fei Yan
Жанр : Комедия, мелодрама, фэнт
Программа кодирования : VirtualDubMod 1.5.10.2 (build 2542/release)
Формат оригинала/Имя : Художественный фильм
Авторское право : Китай, Beijing Mahua Funage Company
Примечание : Rip by vitolinform
Видео
Идентификатор : 0
Формат : MPEG-4 Visual
Профиль формата : Advanced [email protected]
Настройки формата : BVOP1
Параметр BVOP формата : 1
Параметр QPel формата : Нет
Параметр GMC формата : Без точки перехода
Параметр матрицы формата : Default (MPEG)
Идентификатор кодека : XVID
Идентификатор кодека/Подсказка : XviD
Продолжительность : 1 ч. 43 м.
Битрейт : 1 367 Кбит/сек
Ширина : 720 пикселей
Высота : 304 пикселя
Соотношение сторон : 2, 35: 1
Частота кадров : 24, 000 кадра/сек
Цветовое пространство : YUV
Субдискретизация насыщенности : 4: 2: 0
Битовая глубина : 8 бит
Тип развёртки : Прогрессивная
Метод сжатия : С потерями
Бит/(Пиксели*Кадры) : 0.260
Размер потока : 1 015 Мбайт (68%)
Библиотека кодирования : XviD 69
Аудио #1
Идентификатор : 1
Формат : AC-3
Формат/Информация : Audio Coding 3
Коммерческое название : Dolby Digital
Идентификатор кодека : 2000
Продолжительность : 1 ч. 43 м.
Вид битрейта : Постоянный
Битрейт : 192 Кбит/сек
Каналы : 2 канала
Channel layout : L R
Частота : 48, 0 КГц
Частота кадров : 31, 250 кадров/сек (1536 SPF)
Метод сжатия : С потерями
Размер потока : 143 Мбайт (10%)
Выравнивание : Разделение по промежуткам
Продолжительность промежутка : 42 мс. (1, 00 видеокадр)
Время предзагрузки промежутка : 500 мс.
Заголовок : Russian (DVO, RealFake)
Service kind : Complete Main
Аудио #2
Идентификатор : 2
Формат : AC-3
Формат/Информация : Audio Coding 3
Коммерческое название : Dolby Digital
Идентификатор кодека : 2000
Продолжительность : 1 ч. 43 м.
Вид битрейта : Постоянный
Битрейт : 448 Кбит/сек
Каналы : 6 каналов
Channel layout : L R C LFE Ls Rs
Частота : 48, 0 КГц
Частота кадров : 31, 250 кадров/сек (1536 SPF)
Метод сжатия : С потерями
Размер потока : 333 Мбайт (22%)
Выравнивание : Разделение по промежуткам
Продолжительность промежутка : 42 мс. (1, 00 видеокадр)
Время предзагрузки промежутка : 500 мс.
Заголовок : Chinese
Service kind : Complete Main

Скриншоты для ознакомления



Все одноименные релизы в Клубе
Время раздачи: 24/7 (мультитрекерная раздача) (до появления первых 3-5 скачавших)

Другие торренты по теме:

  • Zoku Sayonara Zetsubou Sensei | Sayonara Zetsubo Sensei Extreme | Прощай, унылый учитель Экстремально! | Прощай, унылый учитель [ТВ-2] [2008, TV, 13 эп.] DVDrip 480p raw скачать через торрент бесплатно
  • Прощай, детка, прощай / Gone Baby Gone (2007) BDRip
  • Прощай, Париж / Adieu Paris (2013) BDRip [576p] iPad
  • Осторожно, мошенники! Прощай, работа! (2015.02.03) SATRip
  • Прощай, речь / Adieu au langage (2014) BDRip [576p] скачать через торрент бесплатно
  • Прощай, унылый учитель: Покаяние — Спешл / Sayonara Zetsubou Sensei Special [2012, OVA, 1 из 1] BDrip 720p Hi10p raw скачать через торрент бесплатно
  • Прощай, унылый учитель: Покаяние — Спешл / Sayonara Zetsubou Sensei Special [2012, OVA, 1 из 1] BDrip 1080p Hi10p raw скачать через торрент бесплатно
  • Прощай, Сабата / Adios Sabata (1970) HDTVRip [H.264] скачать через торрент бесплатно

  • Посетители, находящиеся в группе Гости, не могут оставлять комментарии в данной новости.