Подписывайся на наш канал в Telegram https://t.me/torrentok и получи доступ к торрентам без ограничений!

СеняФедя (2020) WEB-DL [H.264 / 1080p-LQ] (сезон 4, серии 1-3 из 17) (обновляемая) торрент скачать бесплатно

СеняФедя (2020) WEB-DL [H.264 / 1080p-LQ] (сезон 4, серии 1-3 из 17) (обновляемая)Производство: Россия/PICK UP FILM по заказу телеканала СТС
Жанр: комедия
Режиссер: Юрий Владовский

Актеры
Сергей Лавыгин, Михаил Тарабукин, Анна Бегунова, Ирина Аугшкап, Леся Кудряшова, Кристина Юдичева, Арина Полонская, Алексей Старченко, Андрей Трушин, Галина Коньшина и др.

Описание

СеняФедя 4 сезон любимого сериала — продолжение истории двух поваров Сени и Феди, которые каждый раз попадают в смешные и неловкие ситуации. Эти герои уже всем известны по сериалу Кухня, где они также работали в ресторане Клод Моне, а их шефом был — неуравновешенный профессионал своего дела — Виктор Баринов. Однако теперь Сеня и Федя решили уйти из под опеки шефа и открыть свой бизнес — закусочную на колесах. Герои даже не могли представить, каково это иметь свое дело и отвечать за него самим, без какой-либо помощи. Несмотря на то, что они всегда попадают в какие-то непростые истории, но с помощью юмора они могут преодолеть если не все, то многое…


Возраст: 16+ (зрителям, достигшим 16 лет)
Релиз от: Getty
Продолжительность: ~00: 25: 00 серия
Качество видео: WEB-DL
Видео: AVC/H.264, 1920x1080 (16: 9), ~3400 Kbps
Аудио: AC3, 2 ch, 192 Kbps
Общее
Уникальный идентификатор : 172966876189984065413300054221279842751 (0x822035686446B784A842C3352BB1D1BF)
Полное имя : G: SenyaFedya.S04.2020.WEB-DL.(1080p).GettySenyaFedya.s04e01.2020.WEB-DL.(1080p).Getty.mkv
Формат : Matroska
Версия формата : Version 2
Размер файла : 654 Мбайт
Продолжительность : 24 м. 57 с.
Режим общего битрейта : Переменный
Общий поток : 3 664 Кбит/сек
Дата кодирования : UTC 2020-08-31 09: 24: 47
Программа кодирования : mkvmerge v4.0.0 (\'The Stars were mine\') сборка от Jun 6 2010 16: 18: 42
Библиотека кодирования : libebml v1.0.0 + libmatroska v1.0.0
Видео
Идентификатор : 1
Формат : AVC
Формат/Информация : Advanced Video Codec
Профиль формата : [email protected]
Настройки формата : CABAC/5 Ref Frames
Параметр CABAC формата : Да
Параметр RefFrames формата : 5 кадров
Идентификатор кодека : V_MPEG4/ISO/AVC
Продолжительность : 24 м. 57 с.
Вид битрейта : Переменный
Битрейт : 3 399 Кбит/сек
Максимальный битрейт : 40, 0 Мбит/сек
Ширина : 1 920 пикселей
Высота : 1 080 пикселей
Соотношение сторон : 16: 9
Режим частоты кадров : Постоянный
Частота кадров : 25, 000 кадров/сек
Стандарт вещания : PAL
Цветовое пространство : YUV
Субдискретизация насыщенности : 4: 2: 0
Битовая глубина : 8 бит
Тип развёртки : Прогрессивная
Бит/(Пиксели*Кадры) : 0.066
Размер потока : 607 Мбайт (93%)
Язык : Russian
Default : Да
Forced : Нет
Цветовой диапазон : Limited
Основные цвета : BT.709
Характеристики трансфера : BT.709
Коэффициенты матрицы : BT.709
Аудио
Идентификатор : 2
Формат : AC-3
Формат/Информация : Audio Coding 3
Коммерческое название : Dolby Digital
Идентификатор кодека : A_AC3
Продолжительность : 24 м. 57 с.
Вид битрейта : Постоянный
Битрейт : 192 Кбит/сек
Каналы : 2 канала
Channel layout : L R
Частота : 48, 0 КГц
Частота кадров : 31, 250 кадров/сек (1536 SPF)
Метод сжатия : С потерями
Размер потока : 34, 3 Мбайт (5%)
Язык : Russian
Service kind : Complete Main
Default : Да
Forced : Нет

Скриншоты для ознакомления



Все одноименные релизы в Клубе
Время раздачи: 24/7 (мультитрекерная раздача) (до появления первых 3-5 скачавших)

Другие торренты по теме:

  • СеняФедя (2019) WEB-DL [H.264 / 720p-LQ] (сезон 2, серии 1-3 из 13) (Обновляемая)
  • #СеняФедя (2019) WEB-DL [H.264 / 720p-LQ] (сезон 3, серии 1-3 из 12) (обновляемая)
  • #СеняФедя (2019) WEB-DL [H.264 / 1080p-LQ] (сезон 3, серии 1-4 из 12) (обновляемая)

  • Посетители, находящиеся в группе Гости, не могут оставлять комментарии в данной новости.