Подписывайся на наш канал в Telegram https://t.me/torrentok и получи доступ к торрентам без ограничений!

Ольга (2020) SATRip (сезон 4, серии 1-2 из ) (обновляемая) торрент скачать бесплатно

Ольга (2020) SATRip (сезон 4, серии 1-2 из ) (обновляемая)Производство: Россия/Good Story Media
Жанр: комедия
Режиссер: Алексей Нужный, Игорь Волошин, Антон Борматов

Актеры
Яна Троянова, Василий Кортуков, Алина Алексеева, Ксения Суркова, Сергей Романович, Максим Костромыкин, Гоша Куценко, Анастасия Матвеева, Павел Майков, Юра Борисов и др.

Описание

Главная героиня воспитывает двух детей от разных браков, заботится об отце-алкоголике и пытается наладить личную жизнь. Старшая дочь Анька учится в ПТУ, думает, что она единственный адекватный член семьи и в её жизни все будет по-другому, младший сын Тимофей, чей отец вернулся к первой семье в Азербайджан, считает, что он уже мужчина, хотя ему всего лишь 11 лет, отец Ольги, бывший футболист, крепко выпивает и постоянно врет, а сестра Ленка пытается жить за счет мужчин, в основном — женатых. Вечно спасая родственников от неприятностей, Ольга живет чужой жизнью и редко думает о себе – до тех пор, пока в нее не влюбляется молодой и положительный водитель газели Ритуал Гриша.


Возраст: 16+ (зрителям, достигшим 16 лет)
Релиз от: 25Kuzmich
Продолжительность: ~00: 25: 00 серия
Качество видео: SATRip
Видео: Xvid, 720x400 (16: 9), ~1650 Kbps
Аудио: MP3, 2 ch, 192 Kbps
Общее
Полное имя : G: Olga.S04.XviD.SATRip.25KuzmichOlga.s04.s01.XviD.SATRip.25Kuzmich.avi
Формат : AVI
Формат/Информация : Audio Video Interleave
Размер файла : 302 Мбайт
Продолжительность : 22 м. 50 с.
Общий поток : 1 849 Кбит/сек
Программа кодирования : VirtualDubMod 1.5.10.3 (build 2550/release)
Библиотека кодирования : VirtualDubMod build 2550/release
Видео
Идентификатор : 0
Формат : MPEG-4 Visual
Профиль формата : Advanced [email protected]
Настройки формата : BVOP1
Параметр BVOP формата : 1
Параметр QPel формата : Нет
Параметр GMC формата : Без точки перехода
Параметр матрицы формата : Default (MPEG)
Идентификатор кодека : XVID
Идентификатор кодека/Подсказка : XviD
Продолжительность : 22 м. 50 с.
Битрейт : 1 647 Кбит/сек
Ширина : 720 пикселей
Высота : 400 пикселей
Соотношение сторон : 16: 9
Частота кадров : 25, 000 кадров/сек
Цветовое пространство : YUV
Субдискретизация насыщенности : 4: 2: 0
Битовая глубина : 8 бит
Тип развёртки : Прогрессивная
Метод сжатия : С потерями
Бит/(Пиксели*Кадры) : 0.229
Размер потока : 269 Мбайт (89%)
Библиотека кодирования : XviD 73
Аудио
Идентификатор : 1
Формат : MPEG Audio
Версия формата : Version 1
Профиль формата : Layer 3
Настройки формата : Joint stereo
Идентификатор кодека : 55
Идентификатор кодека/Подсказка : MP3
Продолжительность : 22 м. 50 с.
Вид битрейта : Постоянный
Битрейт : 192 Кбит/сек
Каналы : 2 канала
Частота : 48, 0 КГц
Частота кадров : 41, 667 кадра/сек (1152 SPF)
Метод сжатия : С потерями
Размер потока : 31, 4 Мбайт (10%)
Выравнивание : Соединение по промежуткам
Продолжительность промежутка : 40 мс. (1, 00 видеокадр)
Время предзагрузки промежутка : 504 мс.
Библиотека кодирования : LAME3.99r
Настройки программы : -m j -V 4 -q 2 -lowpass 18.6 -b 192

Скриншоты для ознакомления



Все одноименные релизы в Клубе
Время раздачи: 24/7 (мультитрекерная раздача) (до появления первых 3-5 скачавших)

Другие торренты по теме:

  • Любимые актеры. Ольга Аросева (2014) SATRip
  • Ольга (2016) SATRip (сезон 1, серии 1-2 из 20) (обновляемая)
  • Диалог с легендой. Ольга Лепешинская (2004) SATRip
  • Ольга (2017) SATRip [H.264] (сезон 2, серии 1 из 20) (обновляемая)
  • Ольга (2018) SATRip (сезон 3, серии 1 из 20) (обновляемая)

  • Посетители, находящиеся в группе Гости, не могут оставлять комментарии в данной новости.