Подписывайся на наш канал в Telegram https://t.me/torrentok и получи доступ к торрентам без ограничений!

Я ненавижу Сьюзи / I Hate Suzie (2020) WEB-DL [H.264 / 1080p-LQ] (сезон 1, серии 1-8 из 8) Кириллица торрент скачать бесплатно

Я ненавижу Сьюзи / I Hate Suzie (2020) WEB-DL [H.264 / 1080p-LQ] (сезон 1, серии 1-8 из 8) КириллицаПроизводство: Великобритания/Bad Wolf
Жанр: драма, комедия
Режиссер: Джорджи Бэнкс-Дэвис

Актеры
Билли Пайпер, Лейла Фарзад, Дэниел Айнгз, Чарльз Эйткен, Питер Баррет, Кэйт Кук, Кэролайн Болтон, Фил Дэниэлс, Теренс Эгни, Прия Блэкбёрн, Кайса Хаммарлунд, Оливер Хабанд, Питер Ханна, Молли Харрис, Лили Никол, Тревор Уайт, Джеймс Генри-Томас, Сара Уинтер (II), Стиви Рейн, Хелена Блекман

Описание

Жизнь актрисы Сьюзи Пиклс летит под откос - её смартфон взломали и украли компрометирующие фото. Она проходит через все стадии: отрицание, гнев, торг, депрессия и, наконец, принятие того, что с ней произошло. Вместе со своей подругой и менеджером Наоми Сьюзи пытается сохранить карьеру и брак.


Дата мировой премьеры: 27 августа 2020
Релиз от: ExKinoRay
Продолжительность: ~00: 30: 00
Качество видео: WEB-DL
Перевод: Многоголосый профессиональный (Кириллица по заказу Amedia)
Субтитры: Русские (Кириллица), английские
Видео: AVC/H.264, 1920х1080, ~6068 Kbps
Аудио: AC3, 6 ch, 384 Kbps, русский
Аудио: AC3, 6 ch, 448 Kbps, английский
Общее
Уникальный идентификатор : 192553107708751784810009317457526872963 (0x90DC612D9A9A6AA3B85997A6BD815B83)
Полное имя : E: DownloadsI.Hate.Suzie.S01.2020.WEB-DL.1080p.ExKinoRayI.Hate.Suzie.S01.E01.2020.WEB-DL.1080p.ExKinoRay.mkv
Формат : Matroska
Версия формата : Version 2
Размер файла : 1, 51 Гбайт
Продолжительность : 30 м. 44 с.
Общий поток : 7 041 Кбит/сек
Дата кодирования : UTC 2020-08-29 00: 39: 15
Программа кодирования : mkvmerge v5.8.0 (\'No Sleep/Pillow\') built on Sep 2 2012 15: 37: 04
Библиотека кодирования : libebml v1.2.3 + libmatroska v1.3.0
Видео
Идентификатор : 1
Формат : AVC
Формат/Информация : Advanced Video Codec
Профиль формата : [email protected]
Настройки формата : CABAC/4 Ref Frames
Параметр CABAC формата : Да
Параметр RefFrames формата : 4 кадра
Идентификатор кодека : V_MPEG4/ISO/AVC
Продолжительность : 30 м. 44 с.
Битрейт : 6 068 Кбит/сек
Ширина : 1 920 пикселей
Высота : 1 080 пикселей
Соотношение сторон : 16: 9
Режим частоты кадров : Постоянный
Частота кадров : 25, 000 кадров/сек
Цветовое пространство : YUV
Субдискретизация насыщенности : 4: 2: 0
Битовая глубина : 8 бит
Тип развёртки : Прогрессивная
Бит/(Пиксели*Кадры) : 0.117
Размер потока : 1, 30 Гбайт (86%)
Язык : English
Default : Да
Forced : Нет
Цветовой диапазон : Limited
Основные цвета : BT.709
Характеристики трансфера : BT.709
Коэффициенты матрицы : BT.709
Duration_Source : General_Duration
Аудио #1
Идентификатор : 2
Формат : AC-3
Формат/Информация : Audio Coding 3
Коммерческое название : Dolby Digital
Идентификатор кодека : A_AC3
Продолжительность : 30 м. 44 с.
Вид битрейта : Постоянный
Битрейт : 384 Кбит/сек
Каналы : 6 каналов
Channel layout : L R C LFE Ls Rs
Частота : 48, 0 КГц
Частота кадров : 31, 250 кадров/сек (1536 SPF)
Метод сжатия : С потерями
Размер потока : 84, 5 Мбайт (5%)
Язык : Russian
Service kind : Complete Main
Default : Да
Forced : Нет
Duration_Source : General_Duration
Аудио #2
Идентификатор : 3
Формат : AC-3
Формат/Информация : Audio Coding 3
Коммерческое название : Dolby Digital
Идентификатор кодека : A_AC3
Продолжительность : 30 м. 44 с.
Вид битрейта : Постоянный
Битрейт : 448 Кбит/сек
Каналы : 6 каналов
Channel layout : L R C LFE Ls Rs
Частота : 48, 0 КГц
Частота кадров : 31, 250 кадров/сек (1536 SPF)
Метод сжатия : С потерями
Размер потока : 98, 5 Мбайт (6%)
Язык : English
Service kind : Complete Main
Default : Нет
Forced : Нет
Duration_Source : General_Duration
Текст #1
Идентификатор : 4
Формат : UTF-8
Идентификатор кодека : S_TEXT/UTF8
Идентификатор кодека/Информация : UTF-8 Plain Text
Язык : Russian
Default : Нет
Forced : Нет
Текст #2
Идентификатор : 5
Формат : UTF-8
Идентификатор кодека : S_TEXT/UTF8
Идентификатор кодека/Информация : UTF-8 Plain Text
Язык : English
Default : Нет
Forced : Нет

Скриншоты для ознакомления



Все одноименные релизы в Клубе
Время раздачи: 24/7 (мультитрекерная разадча)

Другие торренты по теме:

  • Ненавижу и люблю (2015) SATRip (серии 1-4 из 4)
  • Ненавижу отпуск / Je hais les vacances (2007) IPTVRip скачать через торрент бесплатно
  • Ненавижу (2016) SATRip (серии 1-4 из 4)
  • Ненавижу (2016) HDTVRip [H.264 / 720p-LQ] (серии 1-2 из 2)
  • Ненавижу (2016) HDTVRip (серии 1-2 из 2)
  • Бронислава Вонсович, Тина Лукьянова | Я ненавижу магические академии (2016) [MP3]
  • Юлия Славачевская, Марина Рыбицкая | Люблю. Целую. Ненавижу. Кэмерон (2017) [FB2]
  • Марина Серова | Ненавижу за любовь (2017) [FB2]

  • Посетители, находящиеся в группе Гости, не могут оставлять комментарии в данной новости.