Подписывайся на наш канал в Telegram https://t.me/torrentok и получи доступ к торрентам без ограничений!

Роковой патруль / Doom Patrol (2020) WEB-DL [H.264 / 1080р] (сезон 2, серии 1-9 из 9) Кубик в кубе торрент скачать бесплатно

Роковой патруль / Doom Patrol (2020) WEB-DL [H.264 / 1080р] (сезон 2, серии 1-9 из 9) Кубик в кубеПроизводство: США/DC Comics
Жанр: фантастика, боевик, драма, комедия, детектив, приключения
Режиссер: Крис Мэнли, Дермотт Даунс, Гарри Жиержиан

Актеры
Дайан Герреро, Эйприл Боулби, Мэтт Бомер, Брендан Фрейзер, Тимоти Далтон, Райли Шэнэхэн, Мэттью Зук, Джоиван Уэйд, Алан Тьюдик, Фил Моррис

Описание

Сюжет повествует о супергероях, обретших сверхспособности в результате изувечивших их роковых случайностей. В состав необычной команды под руководством сумасшедшего учёного Найлза Колдера (также известного как Шеф) входят Роботмен, Негативный Человек, Безумная Джейн и Эластичная Женщина. Сломленные и искалеченные, эти люди находят применение своим способностям, защищая Землю от самых невероятных угроз. Роковой патруль — команда изгоев, воюющих за спасение мира, которому нет до них никакого дела.


Возраст: 16+ (зрителям, достигшим 16 лет)
Релиз от: TeamHD
Продолжительность: ~00: 55: 00 серия
Качество видео: WEB-DL
Перевод: Двуголосый профессиональный (Кубик в кубе)
Субтитры: английские (SDH)
Присутствует ненормативная лексика
Видео: AVC/H.264, 1920x1080, ~8247 Kbps
Аудио 1: AAC, 2 ch, 248 Kbps - русский
Аудио 2: AAC, 2 ch, 248 Kbps - русский (без цензуры )
Аудио 3: AC-3, 6 ch, 384 kbps - английский
Общее
Уникальный идентификатор : 86552505518246180940574964262278657623 (0x411D67FDA2E62F1A8081315CD559F657)
Полное имя : /Volumes/HDD/Movies/Doom.Patrol.S02.1080p.HMAX.WEB-DL.Rus.Eng-NTb_THD/Doom.Patrol.S02E03.1080p.HMAX.WEB-DL.Rus.Eng-NTb_THD.mkv
Формат : Matroska
Версия формата : Version 4
Размер файла : 3, 08 Гбайт
Продолжительность : 48 м. 22 с.
Режим общего битрейта : Переменный
Общий поток : 9 130 Кбит/сек
Название фильма : Doom Patrol (2020) S02E03 - Release for TeamHD
Дата кодирования : UTC 2020-08-26 17: 00: 54
Программа кодирования : mkvmerge v48.0.0 (\'Fortress Around Your Heart\') 64-bit
Библиотека кодирования : libebml v1.4.0 + libmatroska v1.6.0
Видео
Идентификатор : 1
Формат : AVC
Формат/Информация : Advanced Video Codec
Профиль формата : [email protected]
Настройки формата : CABAC/4 Ref Frames
Параметр CABAC формата : Да
Параметр RefFrames формата : 4 кадра
Идентификатор кодека : V_MPEG4/ISO/AVC
Продолжительность : 48 м. 22 с.
Вид битрейта : Переменный
Битрейт : 8 247 Кбит/сек
Максимальный битрейт : 12, 4 Мбит/сек
Ширина : 1 920 пикселей
Высота : 1 080 пикселей
Соотношение сторон : 16: 9
Режим частоты кадров : Постоянный
Частота кадров : 23, 976 (24000/1001) кадра/сек
Цветовое пространство : YUV
Субдискретизация насыщенности : 4: 2: 0
Битовая глубина : 8 бит
Тип развёртки : Прогрессивная
Бит/(Пиксели*Кадры) : 0.166
Размер потока : 2, 79 Гбайт (90%)
Default : Да
Forced : Нет
Аудио #1
Идентификатор : 2
Формат : AAC LC
Формат/Информация : Advanced Audio Codec Low Complexity
Идентификатор кодека : A_AAC-2
Продолжительность : 48 м. 22 с.
Битрейт : 248 Кбит/сек
Каналы : 2 канала
Channel layout : L R
Частота : 48, 0 КГц
Частота кадров : 46, 875 кадров/сек (1024 SPF)
Метод сжатия : С потерями
Размер потока : 85, 8 Мбайт (3%)
Заголовок : Кубик в кубе
Язык : Russian
Default : Нет
Forced : Нет
Аудио #2
Идентификатор : 3
Формат : AAC LC
Формат/Информация : Advanced Audio Codec Low Complexity
Идентификатор кодека : A_AAC-2
Продолжительность : 48 м. 22 с.
Битрейт : 248 Кбит/сек
Каналы : 2 канала
Channel layout : L R
Частота : 48, 0 КГц
Частота кадров : 46, 875 кадров/сек (1024 SPF)
Метод сжатия : С потерями
Размер потока : 85, 8 Мбайт (3%)
Заголовок : Кубик в кубе +18
Язык : Russian
Default : Нет
Forced : Нет
Аудио #3
Идентификатор : 4
Формат : AC-3
Формат/Информация : Audio Coding 3
Коммерческое название : Dolby Digital
Идентификатор кодека : A_AC3
Продолжительность : 48 м. 22 с.
Вид битрейта : Постоянный
Битрейт : 384 Кбит/сек
Каналы : 6 каналов
Channel layout : L R C LFE Ls Rs
Частота : 48, 0 КГц
Частота кадров : 31, 250 кадров/сек (1536 SPF)
Метод сжатия : С потерями
Размер потока : 133 Мбайт (4%)
Язык : English
Service kind : Complete Main
Default : Нет
Forced : Нет
Текст
Идентификатор : 5
Формат : UTF-8
Идентификатор кодека : S_TEXT/UTF8
Идентификатор кодека/Информация : UTF-8 Plain Text
Продолжительность : 46 м. 1 с.
Битрейт : 69 бит/сек
Count of elements : 783
Размер потока : 23, 4 Кбайт (0%)
Язык : English
Default : Нет
Forced : Нет

Скриншоты для ознакомления



Все одноименные релизы в Клубе
Время раздачи: 24/7 (круглосуточно), до появления первых 3-5 скачавших

Другие торренты по теме:

  • Роковой патруль / Doom Patrol (2019) WEB-DLRip [H.264] (сезон 1, серии 1-1 из 13) Profix Media (обновляемая)
  • Роковой патруль / Doom Patrol (2019) WEB-DL [H.264 / 1080p-LQ] (сезон 1, серии 1 из 13) TVShows (обновляемая)
  • Роковой патруль / Doom Patrol (2019) WEB-DLRip [H.264 / 1080p-LQ] (сезон 1, серии 1-13 из 15) LostFilm (обновляемая)
  • Роковой патруль / Doom Patrol (2019) WEBRip [H.265 / 2160p-LQ] (сезон 1, серии 1-15 из 15) LE-Production
  • Роковой патруль / Doom Patrol (2020) WEB-DL [H.264 / 1080р] (сезон 2, серии 1-9 из 9) NewStudio

  • Посетители, находящиеся в группе Гости, не могут оставлять комментарии в данной новости.