Подписывайся на наш канал в Telegram https://t.me/torrentok и получи доступ к торрентам без ограничений!

Бойфренд из будущего / About Time (2013) BDRip [H.265 / 1080p-LQ] [10-bit] торрент скачать бесплатно

Бойфренд из будущего / About Time (2013) BDRip [H.265 / 1080p-LQ] [10-bit]Производство: Великобритания/Translux, Working Title Films
Жанр: фантастика, фэнтези, драма, мелодрама, комедия
Режиссер: Ричард Кёртис

Актеры
Донал Глисон, Рэйчел МакАдамс, Билл Найи, Том Холландер, Марго Робби, Лидия Уилсон, Линдси Дункан, Ричард Кордери, Джош МакГуайр, Уилл Меррик

Описание
Тиму повезло – он молодой, симпатичный, многообещающий адвокат, а еще он… умеет перемещаться во времени. И чтобы очаровать девушку своей мечты, он готов повторять первое свидание вновь и вновь. Воистину, любовь с первого взгляда не всегда выходит с первого раза...


Возраст: 16+ (зрителям, достигшим 16 лет)
Рейтинг MPAA: R (лицам до 17 лет обязательно присутствие взрослого)
Релиз от: -Star-Lord- (HEVC-CLUB)
Продолжительность: 02: 03: 22
Качество видео: BDRip
Перевод: Дублированный, многоголосый (UKR)
Язык озвучки: Русский, украинский, английский
Субтитры: Русские (форсированные, полные), украинские (форсированные, полные), английские (полные, SDH, SDH-Colored, Commentary)
Видео: HEVC/H.265, 1920x800, ~5265 Кbps
Аудио 1: AC3, 6 ch, 384 Kbps - Русский, дублированный (Лицензия)
Аудио 2: AC3, 2 ch, 192 Kbps - Украинский, MVO (Cine+)
Аудио 3: AC3, 2 ch, 192 Kbps - Украинский, MVO (NLO)
Аудио 4: AC3, 2 ch, 192 Kbps - Украинский, дублированный (Line)
Аудио 5: DTS, 6 ch, 1509 Kbps - Английский
Аудио 6: AC3, 2 ch, 192 Kbps - Английский, Commentary
Общее
Уникальный идентификатор : 87235031535027862919527656567494800879 (0x41A0DB1F196B08A371FFA86056A9F5EF)
Полное имя : R: About Time (2013) 1080p BDRip 1080p H.265 RUS_3xUKR_ENG HEVC-CLUB.mkv
Формат : Matroska
Версия формата : Version 4/Version 2
Размер файла : 6, 83 Гбайт
Продолжительность : 2 ч. 3 м.
Общий поток : 7931 Кбит/сек
Название фильма : Коханий з майбутнього/About Time (2013)
Дата кодирования : UTC 2020-08-29 17: 19: 46
Программа кодирования : mkvmerge v20.0.0 (\'I Am The Sun\') 64-bit
Библиотека кодирования : libebml v1.3.5 + libmatroska v1.4.8
Обложка : Yes
Attachments : Cover
Видео
Идентификатор : 1
Формат : HEVC
Формат/Информация : High Efficiency Video Coding
Профиль формата : [email protected]@High
Идентификатор кодека : V_MPEGH/ISO/HEVC
Продолжительность : 2 ч. 3 м.
Битрейт : 5265 Кбит/сек
Ширина : 1920 пикселей
Высота : 800 пикселей
Соотношение сторон : 2, 40: 1
Режим частоты кадров : Постоянный
Частота кадров : 23, 976 (24000/1001) кадра/сек
Цветовое пространство : YUV
Субдискретизация насыщенности : 4: 2: 0
Битовая глубина : 10 бит
Бит/(Пиксели*Кадры) : 0.143
Размер потока : 4, 54 Гбайт (66%)
Заголовок : Коханий з майбутнього/About Time (2013)
Библиотека кодирования : x265 3.2+5-354901970679: Windowsclang 8.0.164 bit 10bit
Настройки программы : cpuid=1111039/frame-threads=13/numa-pools=12/wpp/no-pmode/no-pme/no-psnr/no-ssim/log-level=3/input-csp=1/input-res=1920x800/interlace=0/total-frames=0/level-idc=51/high-tier=1/uhd-bd=0/ref=5/allow-non-conformance/no-repeat-t_heads/annexb/no-aud/no-hrd/info/hash=0/no-temporal-layers/open-gop/min-keyint=24/keyint=240/gop-lookahead=0/bframes=16/b-adapt=2/b-pyramid/bframe-bias=0/rc-lookahead=60/lookahead-slices=5/scenecut=40/radl=0/no-splice/no-intra-refresh/ctu=64/min-cu-size=8/rect/amp/max-tu-size=32/tu-inter-depth=4/tu-intra-depth=4/limit-tu=0/rdoq-level=2/dynamic-rd=0.00/no-ssim-rd/signhide/no-tskip/nr-intra=0/nr-inter=0/no-constrained-intra/no-strong-intra-smoothing/max-merge=3/limit-refs=1/no-limit-modes/me=3/subme=7/merange=57/temporal-mvp/no-frame-dup/no-hme/weightp/weightb/no-analyze-src-pics/deblock=-3: -3/no-sao/no-sao-non-deblock/rd=6/selective-sao=0/early-skip/rskip/no-fast-intra/no-tskip-fast/no-cu-lossless/b-intra/no-splitrd-skip/rdpenalty=0/psy-rd=2.00/psy-rdoq=1.00/no-rd-refine/no-lossless/cbqpoffs=0/crqpoffs=0/rc=crf/crf=20.0/qcomp=0.65/qpstep=4/stats-write=0/stats-read=0/vbv-maxrate=50000/vbv-bufsize=50000/vbv-init=0.9/crf-max=30.0/crf-min=0.0/ipratio=1.40/pbratio=1.30/aq-mode=1/aq-strength=1.00/no-cutree/zone-count=0/no-strict-cbr/qg-size=32/no-rc-grain/qpmax=69/qpmin=0/no-const-vbv/sar=1/overscan=0/videoformat=5/range=0/colorprim=2/transfer=2/colormatrix=2/chromaloc=0/display-window=0/cll=0, 0/min-luma=0/max-luma=1023/log2-max-poc-lsb=8/vui-timing-info/vui-hrd-info/slices=1/no-opt-qp-pps/no-opt-ref-list-length-pps/no-multi-pass-opt-rps/scenecut-bias=0.05/no-opt-cu-delta-qp/no-aq-motion/no-hdr/no-hdr-opt/no-dhdr10-opt/no-idr-recovery-sei/analysis-reuse-level=5/scale-factor=0/refine-intra=0/refine-inter=0/refine-mv=1/refine-ctu-distortion=0/no-limit-sao/ctu-info=0/no-lowpass-dct/refine-analysis-type=0/copy-pic=1/max-ausize-factor=1.0/no-dynamic-refine/no-single-sei/no-hevc-aq/no-svt/no-field/qp-adaptation-range=1.00
Язык : English
Default : Да
Forced : Нет
Цветовой диапазон : Limited
Аудио #1
Идентификатор : 2
Формат : AC-3
Формат/Информация : Audio Coding 3
Идентификатор кодека : A_AC3
Продолжительность : 2 ч. 3 м.
Вид битрейта : Постоянный
Битрейт : 384 Кбит/сек
Каналы : 6 каналов
Расположение каналов : Front: L C R, Side: L R, LFE
Частота : 48, 0 КГц
Частота кадров : 31, 250 кадров/сек (1536 SPF)
Битовая глубина : 16 бит
Метод сжатия : С потерями
Размер потока : 339 Мбайт (5%)
Заголовок : AC3/5.1 Ch/384 kbps/DUB/Blu-Ray
Язык : Russian
ServiceKind/String : Complete Main
Default : Дадублированный
Forced : Да
Аудио #2
Идентификатор : 3
Формат : AC-3
Формат/Информация : Audio Coding 3
Идентификатор кодека : A_AC3
Продолжительность : 2 ч. 3 м.
Вид битрейта : Постоянный
Битрейт : 192 Кбит/сек
Каналы : 2 канала
Расположение каналов : Front: L R
Частота : 48, 0 КГц
Частота кадров : 31, 250 кадров/сек (1536 SPF)
Битовая глубина : 16 бит
Метод сжатия : С потерями
Размер потока : 169 Мбайт (2%)
Заголовок : AC3/2.0 Ch/192 kbps/MVO/CINE+
Язык : Ukrainian
ServiceKind/String : Complete Main
Default : Нет
Forced : Нет
Аудио #3
Идентификатор : 4
Формат : AC-3
Формат/Информация : Audio Coding 3
Идентификатор кодека : A_AC3
Продолжительность : 2 ч. 3 м.
Вид битрейта : Постоянный
Битрейт : 192 Кбит/сек
Каналы : 2 канала
Расположение каналов : Front: L R
Частота : 48, 0 КГц
Частота кадров : 31, 250 кадров/сек (1536 SPF)
Битовая глубина : 16 бит
Метод сжатия : С потерями
Размер потока : 169 Мбайт (2%)
Заголовок : AC3/2.0 Ch/192 kbps/MVO/NLO-TV
Язык : Ukrainian
ServiceKind/String : Complete Main
Default : Нет
Forced : Нет
Аудио #4
Идентификатор : 5
Формат : AC-3
Формат/Информация : Audio Coding 3
Идентификатор кодека : A_AC3
Продолжительность : 2 ч. 3 м.
Вид битрейта : Постоянный
Битрейт : 192 Кбит/сек
Каналы : 2 канала
Расположение каналов : Front: L R
Частота : 48, 0 КГц
Частота кадров : 31, 250 кадров/сек (1536 SPF)
Битовая глубина : 16 бит
Метод сжатия : С потерями
Размер потока : 169 Мбайт (2%)
Заголовок : AC3/2.0 Ch/192 kbps/DUB/Line
Язык : Ukrainian
ServiceKind/String : Complete Main
Default : Нет
Forced : Нет
Аудио #5
Идентификатор : 6
Формат : DTS
Формат/Информация : Digital Theater Systems
Идентификатор кодека : A_DTS
Продолжительность : 2 ч. 3 м.
Вид битрейта : Постоянный
Битрейт : 1509 Кбит/сек
Каналы : 6 каналов
Расположение каналов : Front: L C R, Side: L R, LFE
Частота : 48, 0 КГц
Частота кадров : 93, 750 кадра/сек (512 SPF)
Битовая глубина : 24 бит
Метод сжатия : С потерями
Размер потока : 1, 30 Гбайт (19%)
Заголовок : DTS/5.1 Ch/1509 kbps/Original
Язык : English
Default : Нет
Forced : Нет
Аудио #6
Идентификатор : 7
Формат : AC-3
Формат/Информация : Audio Coding 3
Идентификатор кодека : A_AC3
Продолжительность : 2 ч. 3 м.
Вид битрейта : Постоянный
Битрейт : 192 Кбит/сек
Каналы : 2 канала
Расположение каналов : Front: L R
Частота : 48, 0 КГц
Частота кадров : 31, 250 кадров/сек (1536 SPF)
Битовая глубина : 16 бит
Метод сжатия : С потерями
Размер потока : 169 Мбайт (2%)
Заголовок : AC3/2.0 Ch/192 kbps/Original/Commentary by director Richard Curtis cast members Domhnall Gleeson, Bill Nighy, Vanessa Kirby, Lydia Wilson Tom Hollander
Язык : English
ServiceKind/String : Complete Main
Default : Нет
Forced : Нет
Текст #1
Идентификатор : 8
Формат : UTF-8
Идентификатор кодека : S_TEXT/UTF8
Идентификатор кодека/Информация : UTF-8 Plain Text
Продолжительность : 1 ч. 36 м.
Битрейт : 0 бит/сек
ElementCount : 9
Размер потока : 314 байт (0%)
Заголовок : Forced
Язык : Russian
Default : Да
Forced : Да
Текст #2
Идентификатор : 9
Формат : UTF-8
Идентификатор кодека : S_TEXT/UTF8
Идентификатор кодека/Информация : UTF-8 Plain Text
Продолжительность : 1 ч. 56 м.
Битрейт : 96 бит/сек
ElementCount : 1638
Размер потока : 82, 1 Кбайт (0%)
Заголовок : Full
Язык : Russian
Default : Нет
Forced : Нет
Текст #3
Идентификатор : 10
Формат : UTF-8
Идентификатор кодека : S_TEXT/UTF8
Идентификатор кодека/Информация : UTF-8 Plain Text
Продолжительность : 1 ч. 36 м.
Битрейт : 0 бит/сек
ElementCount : 9
Размер потока : 308 байт (0%)
Заголовок : Forced
Язык : Ukrainian
Default : Нет
Forced : Нет
Текст #4
Идентификатор : 11
Формат : UTF-8
Идентификатор кодека : S_TEXT/UTF8
Идентификатор кодека/Информация : UTF-8 Plain Text
Продолжительность : 1 ч. 56 м.
Битрейт : 97 бит/сек
ElementCount : 1638
Размер потока : 82, 9 Кбайт (0%)
Заголовок : Full
Язык : Ukrainian
Default : Нет
Forced : Нет
Текст #5
Идентификатор : 12
Формат : UTF-8
Идентификатор кодека : S_TEXT/UTF8
Идентификатор кодека/Информация : UTF-8 Plain Text
Продолжительность : 1 ч. 56 м.
Битрейт : 64 бит/сек
ElementCount : 1903
Размер потока : 54, 6 Кбайт (0%)
Заголовок : Full
Язык : English
Default : Нет
Forced : Нет
Текст #6
Идентификатор : 13
Формат : UTF-8
Идентификатор кодека : S_TEXT/UTF8
Идентификатор кодека/Информация : UTF-8 Plain Text
Продолжительность : 1 ч. 56 м.
Битрейт : 67 бит/сек
ElementCount : 2029
Размер потока : 57, 7 Кбайт (0%)
Заголовок : SDH
Язык : English
Default : Нет
Forced : Нет
Текст #7
Идентификатор : 14
Формат : UTF-8
Идентификатор кодека : S_TEXT/UTF8
Идентификатор кодека/Информация : UTF-8 Plain Text
Продолжительность : 1 ч. 56 м.
Битрейт : 76 бит/сек
ElementCount : 2029
Размер потока : 65, 0 Кбайт (0%)
Заголовок : SDH-Colored
Язык : English
Default : Нет
Forced : Нет
Текст #8
Идентификатор : 15
Формат : UTF-8
Идентификатор кодека : S_TEXT/UTF8
Идентификатор кодека/Информация : UTF-8 Plain Text
Продолжительность : 1 ч. 56 м.
Битрейт : 136 бит/сек
ElementCount : 2394
Размер потока : 117 Кбайт (0%)
Заголовок : Commentary by director Richard Curtis cast members Domhnall Gleeson, Bill Nighy, Vanessa Kirby, Lydia Wilson Tom Hollander
Язык : English
Default : Нет
Forced : Нет
Меню
00: 00: 00.000 : : Chapter 01
00: 03: 58.071 : : Chapter 02
00: 10: 11.902 : : Chapter 03
00: 17: 26.295 : : Chapter 04
00: 20: 38.111 : : Chapter 05
00: 26: 04.396 : : Chapter 06
00: 32: 44.003 : : Chapter 07
00: 40: 26.590 : : Chapter 08
00: 45: 17.965 : : Chapter 09
00: 49: 43.438 : : Chapter 10
00: 54: 50.870 : : Chapter 11
01: 03: 44.529 : : Chapter 12
01: 09: 29.372 : : Chapter 13
01: 16: 28.000 : : Chapter 14
01: 21: 35.724 : : Chapter 15
01: 27: 24.447 : : Chapter 16
01: 34: 52.812 : : Chapter 17
01: 43: 48.847 : : Chapter 18
01: 49: 32.315 : : Chapter 19
01: 57: 03.141 : : Chapter 20

Другие торренты по теме:

  • Бойфренд из будущего / About Time (2013) HDRip [H.264] [Hand Made Extended Cut]

  • Посетители, находящиеся в группе Гости, не могут оставлять комментарии в данной новости.