Подписывайся на наш канал в Telegram https://t.me/torrentok и получи доступ к торрентам без ограничений!

Неповиновение / Disobedience (2017) BDRip [H.265 / 1080p-LQ] [10-bit] торрент скачать бесплатно

Неповиновение / Disobedience (2017) BDRip [H.265 / 1080p-LQ] [10-bit]Производство: Ирландия, Великобритания, США/Braven Films, Element Pictures, Film 4
Жанр: драма, мелодрама
Режиссер: Себастьян Лелио

Актеры
Рэйчел МакАдамс, Рэйчел Вайз, Энтон Лессер, Алессандро Нивола, Аллан Кордунер, Николас Вудесон, Дэвид Флишман, Стив Ферст, Тревор Аллан Дейвис, Софиа Браун

Описание
Женщина возвращается в свой ортодоксальный еврейский дом после смерти отца, который был раввином. Общественное возмущение вызывает интерес, возникший у нее к подруге детства.


Возраст: 18+ (зрителям, достигшим 18 лет. запрещено для детей)
Рейтинг MPAA: R (лицам до 17 лет обязательно присутствие взрослого)
Релиз от: -Star-Lord- (HEVC-CLUB)
Продолжительность: 01: 54: 39
Качество видео: BDRip
Перевод: Многоголосый профессиональный
Субтитры: Русские, украинские, английские (полные, SDH), испанские
Видео: HEVC/H.265, 1920x804, ~5420 Кbps
Аудио 1: AC3, 6 ch, 448 Kbps - Русский, MVO (Лицензия)
Аудио 2: AC3, 2 ch, 192 Kbps - Русский, MVO (HDRezka Studio)
Аудио 3: DTS, 6 ch, 1509 Kbps - Английский
Общее
Уникальный идентификатор : 259554581276796078233631754473899460413 (0xC34464DF0B5CC9B8F0DE0727F4CE873D)
Полное имя : R: Disobedience (2017) BDRip 1080p H.265 RUS_ENG HEVC-CLUB.mkv
Формат : Matroska
Версия формата : Version 4/Version 2
Размер файла : 6, 07 Гбайт
Продолжительность : 1 ч. 54 м.
Общий поток : 7574 Кбит/сек
Название фильма : Неповиновение/Непокора/Disobedience (2017)
Дата кодирования : UTC 2020-09-20 09: 03: 48
Программа кодирования : mkvmerge v20.0.0 (\'I Am The Sun\') 64-bit
Библиотека кодирования : libebml v1.3.5 + libmatroska v1.4.8
Обложка : Yes
Attachments : Cover
Видео
Идентификатор : 1
Формат : HEVC
Формат/Информация : High Efficiency Video Coding
Профиль формата : [email protected]@High
Идентификатор кодека : V_MPEGH/ISO/HEVC
Продолжительность : 1 ч. 54 м.
Битрейт : 5420 Кбит/сек
Ширина : 1920 пикселей
Высота : 804 пикселя
Соотношение сторон : 2, 40: 1
Режим частоты кадров : Постоянный
Частота кадров : 23, 976 (24000/1001) кадра/сек
Цветовое пространство : YUV
Субдискретизация насыщенности : 4: 2: 0
Битовая глубина : 10 бит
Бит/(Пиксели*Кадры) : 0.146
Размер потока : 4, 34 Гбайт (72%)
Заголовок : Неповиновение/Непокора/Disobedience (2017)
Библиотека кодирования : x265 3.2+5-354901970679: Windowsclang 8.0.164 bit 10bit
Настройки программы : cpuid=1111039/frame-threads=13/numa-pools=12/wpp/no-pmode/no-pme/no-psnr/no-ssim/log-level=3/input-csp=1/input-res=1920x804/interlace=0/total-frames=0/level-idc=51/high-tier=1/uhd-bd=0/ref=5/allow-non-conformance/no-repeat-t_heads/annexb/no-aud/no-hrd/info/hash=0/no-temporal-layers/open-gop/min-keyint=24/keyint=240/gop-lookahead=0/bframes=16/b-adapt=2/b-pyramid/bframe-bias=0/rc-lookahead=60/lookahead-slices=5/scenecut=40/radl=0/no-splice/no-intra-refresh/ctu=64/min-cu-size=8/rect/amp/max-tu-size=32/tu-inter-depth=4/tu-intra-depth=4/limit-tu=0/rdoq-level=2/dynamic-rd=0.00/no-ssim-rd/signhide/no-tskip/nr-intra=0/nr-inter=0/no-constrained-intra/no-strong-intra-smoothing/max-merge=3/limit-refs=1/no-limit-modes/me=3/subme=7/merange=57/temporal-mvp/no-frame-dup/no-hme/weightp/weightb/no-analyze-src-pics/deblock=-3: -3/no-sao/no-sao-non-deblock/rd=6/selective-sao=0/early-skip/rskip/no-fast-intra/no-tskip-fast/no-cu-lossless/b-intra/no-splitrd-skip/rdpenalty=0/psy-rd=2.00/psy-rdoq=1.00/no-rd-refine/no-lossless/cbqpoffs=0/crqpoffs=0/rc=crf/crf=20.0/qcomp=0.65/qpstep=4/stats-write=0/stats-read=0/vbv-maxrate=50000/vbv-bufsize=50000/vbv-init=0.9/crf-max=30.0/crf-min=0.0/ipratio=1.40/pbratio=1.30/aq-mode=1/aq-strength=1.00/no-cutree/zone-count=0/no-strict-cbr/qg-size=32/no-rc-grain/qpmax=69/qpmin=0/no-const-vbv/sar=1/overscan=0/videoformat=5/range=0/colorprim=2/transfer=2/colormatrix=2/chromaloc=0/display-window=0/cll=0, 0/min-luma=0/max-luma=1023/log2-max-poc-lsb=8/vui-timing-info/vui-hrd-info/slices=1/no-opt-qp-pps/no-opt-ref-list-length-pps/no-multi-pass-opt-rps/scenecut-bias=0.05/no-opt-cu-delta-qp/no-aq-motion/no-hdr/no-hdr-opt/no-dhdr10-opt/no-idr-recovery-sei/analysis-reuse-level=5/scale-factor=0/refine-intra=0/refine-inter=0/refine-mv=1/refine-ctu-distortion=0/no-limit-sao/ctu-info=0/no-lowpass-dct/refine-analysis-type=0/copy-pic=1/max-ausize-factor=1.0/no-dynamic-refine/no-single-sei/no-hevc-aq/no-svt/no-field/qp-adaptation-range=1.00
Язык : English
Default : Да
Forced : Нет
Цветовой диапазон : Limited
Аудио #1
Идентификатор : 2
Формат : AC-3
Формат/Информация : Audio Coding 3
Идентификатор кодека : A_AC3
Продолжительность : 1 ч. 54 м.
Вид битрейта : Постоянный
Битрейт : 448 Кбит/сек
Каналы : 6 каналов
Расположение каналов : Front: L C R, Side: L R, LFE
Частота : 48, 0 КГц
Частота кадров : 31, 250 кадров/сек (1536 SPF)
Битовая глубина : 16 бит
Метод сжатия : С потерями
Размер потока : 367 Мбайт (6%)
Заголовок : AC3/5.1 Ch/448 kbps/MVO/Лицензия
Язык : Russian
ServiceKind/String : Complete Main
Default : Да
Forced : Да
Аудио #2
Идентификатор : 3
Формат : AC-3
Формат/Информация : Audio Coding 3
Идентификатор кодека : A_AC3
Продолжительность : 1 ч. 54 м.
Вид битрейта : Постоянный
Битрейт : 192 Кбит/сек
Каналы : 2 канала
Расположение каналов : Front: L R
Частота : 48, 0 КГц
Частота кадров : 31, 250 кадров/сек (1536 SPF)
Битовая глубина : 16 бит
Метод сжатия : С потерями
Размер потока : 157 Мбайт (3%)
Заголовок : AC3/2.0 Ch/192 kbps/MVO/HDRezka Studio
Язык : Russian
ServiceKind/String : Complete Main
Default : Нет
Forced : Нет
Аудио #3
Идентификатор : 4
Формат : DTS
Формат/Информация : Digital Theater Systems
Идентификатор кодека : A_DTS
Продолжительность : 1 ч. 54 м.
Вид битрейта : Постоянный
Битрейт : 1509 Кбит/сек
Каналы : 6 каналов
Расположение каналов : Front: L C R, Side: L R, LFE
Частота : 48, 0 КГц
Частота кадров : 93, 750 кадра/сек (512 SPF)
Битовая глубина : 24 бит
Метод сжатия : С потерями
Размер потока : 1, 21 Гбайт (20%)
Заголовок : DTS/5.1 Ch/1509 kbps/Original
Язык : English
Default : Нет
Forced : Нет
Текст #1
Идентификатор : 5
Формат : UTF-8
Идентификатор кодека : S_TEXT/UTF8
Идентификатор кодека/Информация : UTF-8 Plain Text
Продолжительность : 1 ч. 47 м.
Битрейт : 48 бит/сек
ElementCount : 865
Размер потока : 38, 2 Кбайт (0%)
Заголовок : Full
Язык : Russian
Default : Нет
Forced : Нет
Текст #2
Идентификатор : 6
Формат : UTF-8
Идентификатор кодека : S_TEXT/UTF8
Идентификатор кодека/Информация : UTF-8 Plain Text
Продолжительность : 1 ч. 53 м.
Битрейт : 39 бит/сек
ElementCount : 817
Размер потока : 32, 9 Кбайт (0%)
Заголовок : Full from Netflix
Язык : Ukrainian
Default : Нет
Forced : Нет
Текст #3
Идентификатор : 7
Формат : UTF-8
Идентификатор кодека : S_TEXT/UTF8
Идентификатор кодека/Информация : UTF-8 Plain Text
Продолжительность : 1 ч. 47 м.
Битрейт : 28 бит/сек
ElementCount : 884
Размер потока : 22, 5 Кбайт (0%)
Заголовок : Full
Язык : English
Default : Нет
Forced : Нет
Текст #4
Идентификатор : 8
Формат : UTF-8
Идентификатор кодека : S_TEXT/UTF8
Идентификатор кодека/Информация : UTF-8 Plain Text
Продолжительность : 1 ч. 51 м.
Битрейт : 32 бит/сек
ElementCount : 1053
Размер потока : 26, 4 Кбайт (0%)
Заголовок : SDH
Язык : English
Default : Нет
Forced : Нет
Текст #5
Идентификатор : 9
Формат : UTF-8
Идентификатор кодека : S_TEXT/UTF8
Идентификатор кодека/Информация : UTF-8 Plain Text
Продолжительность : 1 ч. 53 м.
Битрейт : 27 бит/сек
ElementCount : 853
Размер потока : 22, 4 Кбайт (0%)
Заголовок : Full
Язык : Spanish
Default : Нет
Forced : Нет
Меню
00: 00: 00.000 : : Chapter 01
00: 03: 43.014 : : Chapter 02
00: 09: 09.591 : : Chapter 03
00: 16: 38.998 : : Chapter 04
00: 21: 25.618 : : Chapter 05
00: 25: 31.655 : : Chapter 06
00: 28: 41.303 : : Chapter 07
00: 36: 43.785 : : Chapter 08
00: 41: 19.894 : : Chapter 09
00: 50: 03.375 : : Chapter 10
00: 57: 51.093 : : Chapter 11
01: 02: 46.179 : : Chapter 12
01: 10: 34.229 : : Chapter 13
01: 17: 28.727 : : Chapter 14
01: 20: 28.949 : : Chapter 15
01: 25: 35.339 : : Chapter 16
01: 31: 59.472 : : Chapter 17
01: 37: 21.711 : : Chapter 18
01: 44: 02.820 : : Chapter 19
01: 49: 47.247 : : Chapter 20

Другие торренты по теме:

  • Неповиновение / Disobedience (2017) HDRip [MVO] [AD]
  • Неповиновение / Disobedience (2017) BDRemux [H.264 / 1080p] [EN / EN, Sp Sub]
  • Неповиновение / Disobedience (2017) BDRemux [H.264 / 1080p]
  • Неповиновение / Disobedience (2017) BDRip [1080p] ATV (MVO)
  • Неповиновение / Disobedience (2017) BDRip [H.265 / 1080p]

  • Посетители, находящиеся в группе Гости, не могут оставлять комментарии в данной новости.