Подписывайся на наш канал в Telegram https://t.me/torrentok и получи доступ к торрентам без ограничений!

Мария-Антуанетта – королева Франции / Marie-Antoinette reine de France (1956) HDRip [H.264] [AVO] торрент скачать бесплатно

Мария-Антуанетта – королева Франции / Marie-Antoinette reine de France (1956) HDRip [H.264] [AVO]Производство: Франция, Италия/Franco London Films, Les Films Gibé, Rizzoli Film S.p.a.
Жанр: История, драма
Режиссер: Жан Деланнуа

Актеры
Мишель Морган, Ричард Тодд, Жак Морель, Жанна Буатель, Эме Кларион, Мадлен Руссе, Ги Трежан, Жоржетт Анис, Марсель Арнольд, Эдмон Бошан,

Описание

Основан на реальных событиях жизни последней королевы Франции Марии-Антуанетты. Действие происходит в 1789—1793 годах (Французская революция, с главным демократизатором – гильотиной). Блистательная в своём великолепии королева, но уязвимая и чувствительная в частной жизни Мария-Антуанетта разрывается между долгом перед мужем — королём Франции Людовиком XVI — и любовью к графу Ферзену.


Продолжительность: 01: 59: 54
Качество видео: HDRip
Перевод: Одноголосый любительский
Субтитры: Русские, английские, французские
Видео: AVC/H.264, 720х528, ~2100 kbps
Аудио 1: AC3, 2 ch, 192 kbps | Русский AVO (Виктор Рутилов)
Аудио 2: AC3, 2 ch, 192 kbps | Французский (оригинал)
Общее
Уникальный идентификатор : 221682383753570310682804621155883954760 (0xA6C6795EB5D5A3D8891C060DC7623248)
Полное имя : M: Мишель МорганМария-Антуанетта – королева ФранцииМария-Антуанетта – королева Франции (1956).mkv
Формат : Matroska
Версия формата : Version 4
Размер файла : 2, 08 Гбайт
Продолжительность : 1 ч. 59 м.
Общий поток : 2 486 Кбит/сек
Название фильма : Release from Topmost
Дата кодирования : UTC 2020-10-20 14: 24: 39
Программа кодирования : mkvmerge v6.2.0 (\'Promised Land\') built on Apr 28 2013 12: 22: 01
Библиотека кодирования : libebml v1.3.0 + libmatroska v1.4.0
Обложка : Yes
Attachments : cover_land.jpg
Видео
Идентификатор : 1
Формат : AVC
Формат/Информация : Advanced Video Codec
Профиль формата : High@L4.1
Настройки формата : CABAC/12 Ref Frames
Параметр CABAC формата : Да
Параметр RefFrames формата : 12 кадров
Идентификатор кодека : V_MPEG4/ISO/AVC
Продолжительность : 1 ч. 59 м.
Битрейт : 2 100 Кбит/сек
Ширина : 720 пикселей
Высота : 528 пикселей
Соотношение сторон : 4: 3
Режим частоты кадров : Постоянный
Частота кадров : 24, 000 кадра/сек
Цветовое пространство : YUV
Субдискретизация насыщенности : 4: 2: 0
Битовая глубина : 8 бит
Тип развёртки : Прогрессивная
Бит/(Пиксели*Кадры) : 0.230
Размер потока : 1, 72 Гбайт (83%)
Заголовок : Мария-Антуанетта – королева Франции/Release from Topmost/
Библиотека кодирования : x264 core 146 r2538 121396c
Настройки программы : cabac=1/ref=12/deblock=1: -3: -3/analyse=0x3: 0x113/me=umh/subme=11/psy=1/psy_rd=1.00: 0.15/mixed_ref=1/me_range=32/chroma_me=1/trellis=2/8x8dct=1/cqm=0/deadzone=21, 11/fast_pskip=0/chroma_qp_offset=-3/threads=12/lookahead_threads=2/sliced_threads=0/nr=0/decimate=0/interlaced=0/bluray_compat=0/constrained_intra=0/bframes=8/b_pyramid=2/b_adapt=2/b_bias=0/direct=1/weightb=1/open_gop=0/weightp=2/keyint=240/keyint_min=23/scenecut=40/intra_refresh=0/rc_lookahead=40/rc=2pass/mbtree=0/bitrate=2100/ratetol=1.0/qcomp=0.60/qpmin=0/qpmax=69/qpstep=4/cplxblur=20.0/qblur=0.5/vbv_maxrate=14000/vbv_bufsize=14000/nal_hrd=none/filler=0/ip_ratio=1.40/pb_ratio=1.30/aq=1: 0.90
Язык : French
Default : Да
Forced : Нет
Аудио #1
Идентификатор : 2
Формат : AC-3
Формат/Информация : Audio Coding 3
Коммерческое название : Dolby Digital
Идентификатор кодека : A_AC3
Продолжительность : 1 ч. 59 м.
Вид битрейта : Постоянный
Битрейт : 192 Кбит/сек
Каналы : 2 канала
Channel layout : L R
Частота : 48, 0 КГц
Частота кадров : 31, 250 кадров/сек (1536 SPF)
Метод сжатия : С потерями
Размер потока : 165 Мбайт (8%)
Язык : Russian
Service kind : Complete Main
Default : Да
Forced : Нет
Аудио #2
Идентификатор : 3
Формат : AC-3
Формат/Информация : Audio Coding 3
Коммерческое название : Dolby Digital
Идентификатор кодека : A_AC3
Продолжительность : 1 ч. 59 м.
Вид битрейта : Постоянный
Битрейт : 192 Кбит/сек
Каналы : 2 канала
Channel layout : L R
Частота : 48, 0 КГц
Частота кадров : 31, 250 кадров/сек (1536 SPF)
Метод сжатия : С потерями
Размер потока : 165 Мбайт (8%)
Service kind : Complete Main
Default : Нет
Forced : Нет
Текст #1
Идентификатор : 4
Формат : UTF-8
Идентификатор кодека : S_TEXT/UTF8
Идентификатор кодека/Информация : UTF-8 Plain Text
Язык : Russian
Default : Нет
Forced : Нет
Текст #2
Идентификатор : 5
Формат : UTF-8
Идентификатор кодека : S_TEXT/UTF8
Идентификатор кодека/Информация : UTF-8 Plain Text
Язык : English
Default : Нет
Forced : Нет
Текст #3
Идентификатор : 6
Формат : UTF-8
Идентификатор кодека : S_TEXT/UTF8
Идентификатор кодека/Информация : UTF-8 Plain Text
Заголовок : SDH
Язык : French
Default : Нет
Forced : Нет
Меню
00: 00: 00.000 : fr: Chapter 1
00: 11: 15.375 : fr: Chapter 2
00: 19: 40.375 : fr: Chapter 3
00: 27: 50.167 : fr: Chapter 4
00: 38: 54.708 : fr: Chapter 5
00: 48: 29.625 : fr: Chapter 6
00: 59: 37.250 : fr: Chapter 7
01: 09: 07.292 : fr: Chapter 8
01: 20: 14.042 : fr: Chapter 9
01: 29: 35.125 : fr: Chapter 10
01: 39: 02.583 : fr: Chapter 11
01: 50: 11.125 : fr: Chapter 12

Скриншоты для ознакомления



Все одноименные релизы в Клубе
Время раздачи: 24/7 до 5 скачавших (до появления первых 3-5 скачавших)

Другие торренты по теме:

  • Наталья Павлищева | Мария-Антуанетта, С трона на эшафот (2018) [MP3]
  • Тайный Версаль Марии-Антуанетты (Мария Антуанетта и секреты Версаля) / The Secret Versailles of Marie-Antoinette (Marie Antoinette und die Geheimnisse von Versailles) (2018) HDTVRip [H.264 / 1080p-LQ]

  • Посетители, находящиеся в группе Гости, не могут оставлять комментарии в данной новости.