Подписывайся на наш канал в Telegram https://t.me/torrentok и получи доступ к торрентам без ограничений!

Склеп / Cryptz (2002) DVD5 торрент скачать бесплатно

Склеп / Cryptz (2002) DVD5Производство: США
Жанр: Ужасы
Режиссер: Дэнни Дрэйвен

Актеры
Чойс Скиннер, Рик Ирвин , Деннис Воллер , Ланден Де\'Леон

Описание

Таинственный склеп — это модная дискотека или место тайных сборищ кровавой секты женщин-убийц. Ответ на этот вопрос найдут герои фильма ценой собственной жизни. Узнайте, что такое склеп и останьтесь в склепе навсегда!

Релиз от: VAN HELSING
Продолжительность: 01: 17: 32
Качество видео: DVD5
Перевод: Одноголосый закадровый
Видео: MPEG-2, 720: 480, ~29.970 kbps
Аудио: AC3, 2 ch, 192kpbs, VBR Код:
Полное имя : C:UsersRomanСклепсклепNEEAIVIDEO_TSVIDEO_TS.BUP
Формат : DVD Video
Профиль формата : Menu
Размер файла : 6, 00 Кбайт
Режим общего битрейта : Переменный
Видео
Идентификатор : 224 (0xE0)
Формат : MPEG Video
Версия формата : Version 2
Вид битрейта : Переменный
Ширина : 720 пикселей
Высота : 480 пикселей
Соотношение сторон : 4:3
Частота кадров : 29, 970 (29970/1000) кадров/сек
Стандарт вещания : NTSC
Метод сжатия : С потерями
Общее
Полное имя : C:UsersRomanСклепсклепNEEAIVIDEO_TSVIDEO_TS.IFO
Формат : DVD Video
Профиль формата : Menu
Размер файла : 6, 00 Кбайт
Режим общего битрейта : Переменный
Видео
Идентификатор : 224 (0xE0)
Формат : MPEG Video
Версия формата : Version 2
Вид битрейта : Переменный
Ширина : 720 пикселей
Высота : 480 пикселей
Соотношение сторон : 4:3
Частота кадров : 29, 970 (29970/1000) кадров/сек
Стандарт вещания : NTSC
Метод сжатия : С потерями
Общее
Полное имя : C:UsersRomanСклепсклепNEEAIVIDEO_TSVTS_01_0.BUP
Формат : DVD Video
Профиль формата : Program
Размер файла : 54, 0 Кбайт
Продолжительность : 1 ч. 17 м.
Режим общего битрейта : Переменный
Общий поток : 95 бит/сек
Видео
Идентификатор : 224 (0xE0)
Формат : MPEG Video
Версия формата : Version 2
Продолжительность : 1 ч. 17 м.
Вид битрейта : Переменный
Ширина : 720 пикселей
Высота : 480 пикселей
Соотношение сторон : 4:3
Частота кадров : 29, 970 (29970/1000) кадров/сек
Стандарт вещания : NTSC
Метод сжатия : С потерями
Аудио
Идентификатор : 128 (0x80)
Формат : AC-3
Формат/Информация : Audio Coding 3
Продолжительность : 1 ч. Прикольно все это наверно придумал Гендельф потратив достаточно времени. 17 м.
Каналы : 2 канала
Частота : 48, 0 КГц
Метод сжатия : С потерями
Язык : Russian
Текст
Идентификатор : 32 (0x20)
Формат : RLE
Формат/Информация : Run-length encoding
Битовая глубина : 2 бит
Язык : English
Меню
Продолжительность : 1 ч. 17 м.
00:00:00.000 : Chapter 1
00:04:08.366 : Chapter 2
00:09:52.299 : Chapter 3
00:22:40.132 : Chapter 4
00:32:40.298 : Chapter 5
00:44:56.298 : Chapter 6
01:07:01.798 : Chapter 7
List (Audio) : 0
List (Subtitles 4/3) : 0
List (Subtitles Wide) : 0
List (Subtitles Letterbox) : 0
List (Subtitles PanScan) : 0
Общее
Полное имя : C:UsersRomanСклепсклепNEEAIVIDEO_TSVTS_01_0.IFO
Формат : DVD Video
Профиль формата : Program
Размер файла : 54, 0 Кбайт
Продолжительность : 1 ч. 17 м.
Режим общего битрейта : Переменный
Общий поток : 95 бит/сек
Видео
Идентификатор : 224 (0xE0)
Формат : MPEG Video
Версия формата : Version 2
Продолжительность : 1 ч. 17 м.
Вид битрейта : Переменный
Ширина : 720 пикселей
Высота : 480 пикселей
Соотношение сторон : 4:3
Частота кадров : 29, 970 (29970/1000) кадров/сек
Стандарт вещания : NTSC
Метод сжатия : С потерями
Аудио
Идентификатор : 128 (0x80)
Формат : AC-3
Формат/Информация : Audio Coding 3
Продолжительность : 1 ч. 17 м.
Каналы : 2 канала
Частота : 48, 0 КГц
Метод сжатия : С потерями
Язык : Russian
Текст
Идентификатор : 32 (0x20)
Формат : RLE
Формат/Информация : Run-length encoding
Битовая глубина : 2 бит
Язык : English
Меню
Продолжительность : 1 ч. 17 м.
00:00:00.000 : Chapter 1
00:04:08.366 : Chapter 2
00:09:52.299 : Chapter 3
00:22:40.132 : Chapter 4
00:32:40.298 : Chapter 5
00:44:56.298 : Chapter 6
01:07:01.798 : Chapter 7
List (Audio) : 0
List (Subtitles 4/3) : 0
List (Subtitles Wide) : 0
List (Subtitles Letterbox) : 0
List (Subtitles PanScan) : 0
Общее
Полное имя : C:UsersRomanСклепсклепNEEAIVIDEO_TSVTS_01_1.VOB
Формат : MPEG-PS
Размер файла : 1024 Мбайт
Продолжительность : 22 м.
Режим общего битрейта : Переменный
Общий поток : 6314 Кбит/сек
Видео
Идентификатор : 224 (0xE0)
Формат : MPEG Video
Версия формата : Version 2
Профиль формата : [email protected]
Параметр BVOP формата : Да
Параметр матрицы формата : Выборочная
Параметр GOP формата : M=3, N=15
Структура изображения : Frame
Продолжительность : 22 м.
Вид битрейта : Переменный
Битрейт : 5996 Кбит/сек
Максимальный битрейт : 9000 Кбит/сек
Ширина : 720 пикселей
Высота : 480 пикселей
Соотношение сторон : 4:3
Частота кадров : 29, 970 (30000/1001) кадров/сек
Стандарт вещания : NTSC
Цветовое пространство : YUV
Субдискретизация насыщенности : 4:2:0
Битовая глубина : 8 бит
Тип развёртки : Чересстрочная
Порядок развёртки : Нижнее поле первое
Метод сжатия : С потерями
Бит/(Пиксели*Кадры) : 0.579
Временной код первого кадра : 00:00:00:00
Оригинал временного кода : Group of pictures t_head
GOP, открыто/закрыто : Закрыто
Размер потока : 972 Мбайт (95%)
Основные цвета : BT.601 NTSC
Характеристики трансфера : BT.601
Коэффициенты матрицы : BT.601
Аудио
Идентификатор : 189 (0xBD)-128 (0x80)
Формат : AC-3
Формат/Информация : Audio Coding 3
Расширение режима : CM (complete main)
Параметр Endianness формата : Big
Режим смешивания : DVD-Video
Продолжительность : 22 м.
Вид битрейта : Постоянный
Битрейт : 192 Кбит/сек
Каналы : 2 канала
Расположение каналов : Front: L R
Частота : 48, 0 КГц
Частота кадров : 31, 250 кадров/сек (1536 spf)
Метод сжатия : С потерями
Размер потока : 31, 1 Мбайт (3%)
Меню
Общее
Полное имя : C:UsersRomanСклепсклепNEEAIVIDEO_TSVTS_01_2.VOB
Формат : MPEG-PS
Размер файла : 1024 Мбайт
Продолжительность : 21 м.
Режим общего битрейта : Переменный
Общий поток : 6712 Кбит/сек
Видео
Идентификатор : 224 (0xE0)
Формат : MPEG Video
Версия формата : Version 2
Профиль формата : [email protected]
Параметр BVOP формата : Да
Параметр матрицы формата : Выборочная
Параметр GOP формата : M=3, N=15
Структура изображения : Frame
Продолжительность : 21 м.
Вид битрейта : Переменный
Битрейт : 6386 Кбит/сек
Максимальный битрейт : 9000 Кбит/сек
Ширина : 720 пикселей
Высота : 480 пикселей
Соотношение сторон : 4:3
Частота кадров : 29, 970 (30000/1001) кадров/сек
Стандарт вещания : NTSC
Цветовое пространство : YUV
Субдискретизация насыщенности : 4:2:0
Битовая глубина : 8 бит
Тип развёртки : Чересстрочная
Порядок развёртки : Нижнее поле первое
Метод сжатия : С потерями
Бит/(Пиксели*Кадры) : 0.617
Временной код первого кадра : 01:22:38:04
Оригинал временного кода : Group of pictures t_head
GOP, открыто/закрыто : Закрыто
Размер потока : 974 Мбайт (95%)
Основные цвета : BT.601 NTSC
Характеристики трансфера : BT.601
Коэффициенты матрицы : BT.601
Аудио
Идентификатор : 189 (0xBD)-128 (0x80)
Формат : AC-3
Формат/Информация : Audio Coding 3
Расширение режима : CM (complete main)
Параметр Endianness формата : Big
Режим смешивания : DVD-Video
Продолжительность : 21 м.
Вид битрейта : Постоянный
Битрейт : 192 Кбит/сек
Каналы : 2 канала
Расположение каналов : Front: L R
Частота : 48, 0 КГц
Частота кадров : 31, 250 кадров/сек (1536 spf)
Метод сжатия : С потерями
Задержка видео : -172 мс.
Размер потока : 29, 3 Мбайт (3%)
Текст
Идентификатор : 189 (0xBD)-32 (0x20)
Формат : RLE
Формат/Информация : Run-length encoding
Режим смешивания : DVD-Video
Задержка видео : 5 с. 372 мс.
Меню
Общее
Полное имя : C:UsersRomanСклепсклепNEEAIVIDEO_TSVTS_01_3.VOB
Формат : MPEG-PS
Размер файла : 1024 Мбайт
Продолжительность : 21 м.
Режим общего битрейта : Переменный
Общий поток : 6565 Кбит/сек
Видео
Идентификатор : 224 (0xE0)
Формат : MPEG Video
Версия формата : Version 2
Профиль формата : [email protected]
Параметр BVOP формата : Да
Параметр матрицы формата : Выборочная
Параметр GOP формата : M=3, N=15
Структура изображения : Frame
Продолжительность : 21 м.
Вид битрейта : Переменный
Битрейт : 6243 Кбит/сек
Максимальный битрейт : 9000 Кбит/сек
Ширина : 720 пикселей
Высота : 480 пикселей
Соотношение сторон : 4:3
Частота кадров : 29, 970 (30000/1001) кадров/сек
Стандарт вещания : NTSC
Цветовое пространство : YUV
Субдискретизация насыщенности : 4:2:0
Битовая глубина : 8 бит
Тип развёртки : Чересстрочная
Порядок развёртки : Нижнее поле первое
Метод сжатия : С потерями
Бит/(Пиксели*Кадры) : 0.603
Временной код первого кадра : 01:43:56:24
Оригинал временного кода : Group of pictures t_head
GOP, открыто/закрыто : Закрыто
Размер потока : 974 Мбайт (95%)
Основные цвета : BT.601 NTSC
Характеристики трансфера : BT.601
Коэффициенты матрицы : BT.601
Аудио
Идентификатор : 189 (0xBD)-128 (0x80)
Формат : AC-3
Формат/Информация : Audio Coding 3
Расширение режима : CM (complete main)
Параметр Endianness формата : Big
Режим смешивания : DVD-Video
Продолжительность : 21 м.
Вид битрейта : Постоянный
Битрейт : 192 Кбит/сек
Каналы : 2 канала
Расположение каналов : Front: L R
Частота : 48, 0 КГц
Частота кадров : 31, 250 кадров/сек (1536 spf)
Метод сжатия : С потерями
Задержка видео : -310 мс.
Размер потока : 29, 9 Мбайт (3%)
Текст
Идентификатор : 189 (0xBD)-32 (0x20)
Формат : RLE
Формат/Информация : Run-length encoding
Режим смешивания : DVD-Video
Задержка видео : 4 с. 538 мс.
Меню
Общее
Полное имя : C:UsersRomanСклепсклепNEEAIVIDEO_TSVTS_01_4.VOB
Формат : MPEG-PS
Размер файла : 436 Мбайт
Продолжительность : 11 м.
Режим общего битрейта : Переменный
Общий поток : 5154 Кбит/сек
Видео
Идентификатор : 224 (0xE0)
Формат : MPEG Video
Версия формата : Version 2
Профиль формата : [email protected]
Параметр BVOP формата : Да
Параметр матрицы формата : Выборочная
Параметр GOP формата : M=3, N=15
Структура изображения : Frame
Продолжительность : 11 м.
Вид битрейта : Переменный
Битрейт : 4859 Кбит/сек
Максимальный битрейт : 9000 Кбит/сек
Ширина : 720 пикселей
Высота : 480 пикселей
Соотношение сторон : 4:3
Частота кадров : 29, 970 (30000/1001) кадров/сек
Стандарт вещания : NTSC
Цветовое пространство : YUV
Субдискретизация насыщенности : 4:2:0
Битовая глубина : 8 бит
Тип развёртки : Чересстрочная
Порядок развёртки : Нижнее поле первое
Метод сжатия : С потерями
Бит/(Пиксели*Кадры) : 0.469
Временной код первого кадра : 02:05:43:24
Оригинал временного кода : Group of pictures t_head
GOP, открыто/закрыто : Закрыто
Размер потока : 411 Мбайт (94%)
Основные цвета : BT.601 NTSC
Характеристики трансфера : BT.601
Коэффициенты матрицы : BT.601
Аудио
Идентификатор : 189 (0xBD)-128 (0x80)
Формат : AC-3
Формат/Информация : Audio Coding 3
Расширение режима : CM (complete main)
Параметр Endianness формата : Big
Режим смешивания : DVD-Video
Продолжительность : 11 м.
Вид битрейта : Постоянный
Битрейт : 192 Кбит/сек
Каналы : 2 канала
Расположение каналов : Front: L R
Частота : 48, 0 КГц
Частота кадров : 31, 250 кадров/сек (1536 spf)
Метод сжатия : С потерями
Задержка видео : -233 мс.
Размер потока : 16, 2 Мбайт (4%)
Меню


Онлайн видео Склеп

Другие торренты по теме:

  • Склеп / Скотобойня / The Charnel House (2016) WEB-DL [H.264 / 720p-LQ] [AD]
  • Склеп / Скотобойня / The Charnel House (2016) WEB-DLRip [AD]
  • Склеп / Скотобойня / The Charnel House (2016) HDRip [EN / RU Sub]
  • Склеп / Скотобойня / The Charnel House (2016) WEB-DLRip

  • Посетители, находящиеся в группе Гости, не могут оставлять комментарии в данной новости.