Подписывайся на наш канал в Telegram https://t.me/torrentok и получи доступ к торрентам без ограничений!

Гражданин Икс / Citizen X (1995) HDTV [H.264 / 1080i] торрент скачать бесплатно

Гражданин Икс / Citizen X (1995) HDTV [H.264 / 1080i]Производство: США, Венгрия, HBO Pictures, Asylum Films, Citadel Entertainment
Жанр: Триллер, Криминал, Драма, История
Режиссер: Крис Джеролмо

Актеры
Стивен Ри, Дональд Сазерленд, Джеффри ДеМанн, Джосс Экленд, Джон Вуд, Макс фон Сюдов, Раду Амзулеску, Имелда Стонтон, Андраш Балинт, Геза Балькаи

Описание

Бешеный зверь, Ростовский потрошитель, Красный партизан, Убийца из лесополосы, Гражданин X, Сатана, Советский Джек-потрошитель.. Все эти прозвища принадлежат одному из самых беспощадных и одновременно тихих, незаметных маньяков в истории человечества - Андрею Чикатило. Захватывающий психологический триллер снят по книге Роберта Каллена Отдел убийств и рассказывает о многолетних поисках серийного убийцы. Удалось ли авторам постичь феномен Чикатило? Криминальный триллер производства США Гражданин Икс вышел на экраны в 1995 году. Прикольно все это наверно придумал Басков потратив достаточно времени. Сюжет фильма основан на реальной истории серийного убийцы Андрея Чикатило (1936-1994), который за многие годы убил более пятидесяти человек. Его жертвам было обычно меньше семнадцати лет. История розыска маньяка - всего лишь способ показать, как работала вся советская система. Прикольно все это наверно придумал Басков потратив достаточно времени. Бюрократия, некомпетентность, коррупция, а главное политические препоны сильно мешают расследованию, которое ведет молодой детектив...

Рейтинг MPAA: R (лицам до 17 лет обязательно присутствие взрослого)
Продолжительность: 01: 38: 39
Качество видео: HDTV 1080i
Перевод: Многоголосый закадровый, профессиональный (NovaMedia)
Субтитры: Русский (Teletext Sub Page)
Вид субтитров: Вшитые, отключаемые
Видео: AVC/H.264, 1920x1080, ~6737 Kbps
Аудио #1 Rus: MP2, 2 ch, 48, 0 kHz, 192 kbps - многоголосый
Аудио #2 Eng: MP2, 2 ch, 48, 0 kHz, 192 kbps - оригинал
Аудио #3 Rus: АС3, 6 ch, 48, 0 kHz, 384 kbps - многоголосый Код:
Общее
Идентификатор : 16 (0x10)
Полное имя : Citizen X_HD.ts
Формат : MPEG-TS
Размер файла : 5, 45 Гбайт
Продолжительность : 1 ч. Время пошло, сказал кто то из толпы, к чему не понятно. 38 м.
Режим общего битрейта : Переменный
Общий поток : 7903 Кбит/сек
Видео
Идентификатор : 1812 (0x714)
Идентификатор меню : 812 (0x32C)
Формат : AVC
Формат/Информация : Advanced Video Codec
Профиль формата :[email protected]
Параметр CABAC формата : Да
Параметр ReFrames формата : 4 кадра
Идентификатор кодека : 27
Продолжительность : 1 ч. 38 м.
Битрейт : 6737 Кбит/сек
Ширина : 1920 пикселей
Высота : 1080 пикселей
Соотношение сторон : 16:9
Частота кадров : 25, 000 кадров/сек
Стандарт вещания : PAL
Цветовое пространство : YUV
Субдискретизация насыщенности : 4:2:0
Битовая глубина : 8 бит
Тип развёртки : MBAFF
Бит/(Пиксели*Кадры) : 0.130
Размер потока : 4, 64 Гбайт (85%)
Основные цвета : BT.709
Характеристики трансфера : BT.709
Коэффициенты матрицы : BT.709
Аудио #1
Идентификатор : 2812 (0xAFC)
Идентификатор меню : 812 (0x32C)
Формат : MPEG Audio
Версия формата : Version 1
Профиль формата : Layer 2
Режим : Joint stereo
Расширение режима : Intensity Stereo + MS Stereo
Идентификатор кодека : 4
Продолжительность : 1 ч. 38 м.
Вид битрейта : Постоянный
Битрейт : 192 Кбит/сек
Каналы : 2 канала
Частота : 48, 0 КГц
Метод сжатия : С потерями
Задержка видео : 105 мс.
Размер потока : 135 Мбайт (2%)
Язык : std
Язык, дополнительно : Clean effects
Аудио #2
Идентификатор : 3812 (0xEE4)
Идентификатор меню : 812 (0x32C)
Формат : MPEG Audio
Версия формата : Version 1
Профиль формата : Layer 2
Режим : Joint stereo
Расширение режима : Intensity Stereo + MS Stereo
Идентификатор кодека : 4
Продолжительность : 1 ч. 38 м.
Вид битрейта : Постоянный
Битрейт : 192 Кбит/сек
Каналы : 2 канала
Частота : 48, 0 КГц
Метод сжатия : С потерями
Задержка видео : 105 мс.
Размер потока : 135 Мбайт (2%)
Язык : std
Язык, дополнительно : Clean effects
Аудио #3
Идентификатор : 4812 (0x12CC)
Идентификатор меню : 812 (0x32C)
Формат : AC-3
Формат/Информация : Audio Coding 3
Расширение режима : CM (complete main)
Параметр Endianness формата : Big
Идентификатор кодека : 6
Продолжительность : 1 ч. 38 м.
Вид битрейта : Постоянный
Битрейт : 384 Кбит/сек
Каналы : 6 каналов
Расположение каналов : Front: L C R, Side: L R, LFE
Частота : 48, 0 КГц
Битовая глубина : 16 бит
Метод сжатия : С потерями
Задержка видео : 84 мс.
Размер потока : 271 Мбайт (5%)
Язык : std
Язык, дополнительно : Clean effects
Текст
Идентификатор : 63 (0x3F)-100
Идентификатор меню : 812 (0x32C)
Формат : Teletext
Меню
Идентификатор : 812 (0x32C)
Идентификатор меню : 812 (0x32C)
Продолжительность : 1 ч. 38 м.
Список : 1812 (0x714) (AVC)/2812 (0xAFC) (MPEG Audio, std)/3812 (0xEE4) (MPEG Audio, std)/4812 (0x12CC) (AC-3, std)/63 (0x3F) ()
Язык : /std/std/std


Скриншоты для ознакомления




Онлайн видео Гражданин Икс

Другие торренты по теме:

  • Гражданин Кейн / Citizen Kane (1941) BDRip [720p] [70th Anniversary Edition]
  • Гражданин Кейн / Citizen Kane (1941) BDRip [720p] [70th Anniversary Edition]
  • Законопослушный гражданин / Law Abiding Citizen (2009) BDRip [1080p] [Unrated Directors Cut]
  • Законопослушный гражданин / Law Abiding Citizen (2009) Blu-ray [1080p] [Unrated Directors Cut]
  • Законопослушный гражданин / Law Abiding Citizen (2009) BDRip [720p] [Unrated Directors Cut]
  • Гражданин Кейн / Citizen Kane (1941) BDRip [H.264 / hand made colored] скачать через торрент бесплатно
  • Законопослушный гражданин / Law Abiding Citizen (2009) BDRemux [H.264 / 1080p] [Theatriacal cut] скачать через торрент бесплатно
  • Законопослушный гражданин / Law Abiding Citizen (2009) BDRemux [H.264 / 1080p] [Расширенная версия]

  • Посетители, находящиеся в группе Гости, не могут оставлять комментарии в данной новости.