Подписывайся на наш канал в Telegram https://t.me/torrentok и получи доступ к торрентам без ограничений!

Неоконченная повесть (1955) HDTVRip [H.264 / 720p-LQ] торрент скачать бесплатно

Неоконченная повесть (1955) HDTVRip [H.264 / 720p-LQ]Производство: СССР, Ленфильм
Жанр: Мелодрама
Режиссер: Фридрих Эрмлер

Актеры
Элина Быстрицкая, Сергей Бондарчук, Софья Гиацинтова, Евгений Самойлов, Евгений Лебедев, Александр Лариков, Герман Хованов, Юрий Толубеев, Эраст Гарин...

Описание

Участковый врач Елизавета Максимовна — красивая женщина и прекрасный отзывчивый человек. Она одинока, хотя за ней и ухаживает уверенный и перспективный коллега. Есть у Елизаветы Максимовны один пациент, мужественный, полный энергии строитель кораблей по фамилии Ершов, прикованный к постели параличом обеих ног. Все доктора рекомендуют ему покой, а Елизавета Максимовна советует работать и не жалеть себя. Ершов всем сердцем влюбляется в свою докторшу, и она любит его, но о чувствах своих сказать не смеет. Ершов думает, что надежды у него нет, но…

Возраст: 0+ (для любой зрительской аудитории)
Релиз от: fomatash
Продолжительность: 01: 33: 13
Качество видео: HDTVRip
Видео: AVC/H.264, 1280x720, ~3261 kbps
Аудио: MP2, 2 ch, 224 kbps, CBR Код:
Общее
Уникальный идентификатор : 235602603599253614962138505693002020344 (0xB13F69325D1EC49D98D57F34554935F8)
Полное имя : D:-TTTНеоконченная повесть-720p-MG-NNM.mkv
Формат : Matroska
Версия формата : Version 4/Version 2
Размер файла : 2, 27 Гбайт
Продолжительность : 1 ч. 33 м.
Общий поток : 3487 Кбит/сек
Дата кодирования : UTC 2016-05-15 02:54:22
Программа кодирования : mkvmerge v9.1.0 (\'Little Earthquakes\') 64bit
Библиотека кодирования : libebml v1.3.3 + libmatroska v1.4.4
Видео
Идентификатор : 1
Формат : AVC
Формат/Информация : Advanced Video Codec
Профиль формата :[email protected]
Параметр CABAC формата : Да
Параметр ReFrames формата : 8 кадров
Идентификатор кодека : V_MPEG4/ISO/AVC
Продолжительность : 1 ч. 33 м.
Битрейт : 3261 Кбит/сек
Ширина : 1280 пикселей
Высота : 720 пикселей
Соотношение сторон : 16:9
Режим частоты кадров : Постоянный
Частота кадров : 25, 000 кадров/сек
Цветовое пространство : YUV
Субдискретизация насыщенности : 4:2:0
Битовая глубина : 8 бит
Тип развёртки : Прогрессивная
Бит/(Пиксели*Кадры) : 0.142
Размер потока : 2, 12 Гбайт (94%)
Заголовок : FomaTash for nnm-club.to
Библиотека кодирования : x264 core 146 r2538 121396c
Настройки программы : cabac=1/ref=8/deblock=1:-1:-1/analyse=0x3:0x133/me=umh/subme=9/psy=1/psy_rd=1.00:0.15/mixed_ref=1/me_range=32/chroma_me=1/trellis=2/8x8dct=1/cqm=0/deadzone=21, 11/fast_pskip=1/chroma_qp_offset=-3/threads=6/lookahead_threads=1/sliced_threads=0/nr=0/decimate=0/interlaced=0/bluray_compat=0/constrained_intra=0/bframes=7/b_pyramid=2/b_adapt=2/b_bias=0/direct=3/weightb=1/open_gop=0/weightp=2/keyint=240/keyint_min=23/scenecut=40/intra_refresh=0/rc_lookahead=40/rc=2pass/mbtree=0/bitrate=3261/ratetol=1.0/qcomp=0.60/qpmin=10/qpmax=51/qpstep=4/cplxblur=20.0/qblur=0.5/vbv_maxrate=50000/vbv_bufsize=62500/nal_hrd=none/filler=0/ip_ratio=1.40/pb_ratio=1.30/aq=1:1.00
Язык : Russian
Default : Да
Forced : Нет
Аудио
Идентификатор : 2
Формат : MPEG Audio
Версия формата : Version 1
Профиль формата : Layer 2
Идентификатор кодека : A_MPEG/L2
Идентификатор кодека/Подсказка : MP2
Продолжительность : 1 ч. 33 м.
Вид битрейта : Постоянный
Битрейт : 224 Кбит/сек
Каналы : 2 канала
Частота : 48, 0 КГц
Частота кадров : 41, 667 кадра/сек (1152 spf)
Метод сжатия : С потерями
Размер потока : 149 Мбайт (6%)
Заголовок : MP2-2 канала
Язык : Russian
Default : Да
Forced : Нет


Скриншоты для ознакомления




Онлайн видео Неоконченная повесть (1955) HDTVRip [H.264

Другие торренты по теме:

  • Неоконченная повесть (1955) HDTV [H.264 / 1080i] скачать через торрент бесплатно

  • Посетители, находящиеся в группе Гости, не могут оставлять комментарии в данной новости.