Подписывайся на наш канал в Telegram https://t.me/torrentok и получи доступ к торрентам без ограничений!

Трест, который лопнул (1982) 3xDVD5 торрент скачать бесплатно

Трест, который лопнул (1982) 3xDVD5Производство: СССР
Жанр: Комедия, Приключения, Музыкальный
Режиссер: Александр Павловский

Актеры
Регимантас Адомайтис (озвучивал Александр Демьяненко, пел Павел Смеян), Николай Караченцов, Виктор Ильичёв, Юрий Мажуга, Всеволод Абдулов, Владимир Басов, Ирина Понаровская, Михаил Светин, Тамара Яценко, Леонид Куравлёв, Борис Новиков, Павел Винник, Геннадий Ялович, Лев Перфилов, Елена Аминова, Михаил Срибный, Александр Павловский, Михаил Муромов

Описание

Приключения двух очаровательных мошенников, живущих за счет доверчивых простаков, знаменитых благодаря великому писателю О. Генри. Не все и не всегда им удается так, как они задумали первоначально, но сколько выдумки в их остроумном поиске хлеба насущного.

Возраст: 12+ (зрителям, достигшим 12 лет)
Релиз от: smithland (remastered)
Продолжительность: 03: 13: 52 (3 серии)
Качество видео: DVD5
Видео: MPEG-2, [email protected], ~9372 Kbps
Аудио: AC3, 2 ch, 192 Kbps, CBR Код:
General
Complete name : Трест который лопнул (3хDVD5)
Format : MPEG-PS
File size : 1 024 MiB
Overall bit rate mode : Variable
Overall bit rate : 9 758 Kbps
Video
ID : 224 (0xE0)
Format : MPEG Video
Format version : Version 2
Format profile : [email protected]
Format settings, BVOP : Yes
Format settings, Matrix : Default
Format settings, GOP : M=3, N=12
Bit rate mode : Variable
Bit rate : 9 372 Kbps
Maximum bit rate : 9 800 Kbps
Width : 720 pixels
Height : 576 pixels
Display aspect ratio : 4:3
Frame rate : 25.000 fps
Standard : Component
Color space : YUV
Chroma subsampling : 4:2:0
Bit depth : 8 bits
Scan type : Progressive
Compression mode : Lossy
Bits/(Pixel*Frame) : 0.904
Time code of first frame : 00:00:00:00
Time code source : Group of pictures t_head
GOP, Open/Closed : Closed
Stream size : 983 MiB (96%)
Color primaries : BT.601 PAL
Transfer characteristics : BT.470 System B, BT.470 System G
Matrix coefficients : BT.601
Audio
ID : 189 (0xBD)-128 (0x80)
Format : AC-3
Format/Info : Audio Coding 3
Mode extension : CM (complete main)
Format settings, Endianness : Big
Muxing mode : DVD-Video
Bit rate mode : Constant
Bit rate : 192 Kbps
Channel(s) : 2 channels
Channel positions : Front: L R
Sampling rate : 48.0 KHz
Frame rate : 31.250 fps (1536 spf)
Compression mode : Lossy
Stream size : 20.1 MiB (2%)


Скриншоты для ознакомления




Онлайн видео Неоконченная повесть (1955) HDTVRip [H.264

Другие торренты по теме:

  • Трест, который лопнул (1982) DVDRip [H.264] скачать через торрент бесплатно
  • Трест, который лопнул (1982) DVD5 скачать через торрент бесплатно
  • О. Генри | Трест, который лопнул (2004) [MP3] скачать через торрент бесплатно
  • Трест, который лопнул (1982) HDTVRip [H.264 / 1080p-LQ] (серии 1-3 из 3)
  • Трест который лопнул (1982) DVD9
  • Трест, который лопнул (1982) DVDRip

  • Посетители, находящиеся в группе Гости, не могут оставлять комментарии в данной новости.