Подписывайся на наш канал в Telegram https://t.me/torrentok и получи доступ к торрентам без ограничений!

Роузвуд / Rosewood (2015) WEB-DLRip [H.264 / 1080р-LQ] (сезон 1, серии 1-20 из 22) NewStudio (обновляемая) торрент скачать бесплатно

Роузвуд / Rosewood (2015) WEB-DLRip [H.264 / 1080р-LQ] (сезон 1, серии 1-20 из 22) NewStudio (обновляемая)Производство: США
Жанр: драма
Режиссер: Ричард Шепард, Сара Пиа Андерсон, Эрик Ланёвилль

Актеры
Моррис Честнат, Мэгги Элизабет Джонс, Мишель Роуз Домб, Габриэль Деннис, Мелисса Пастрана, Джессика Ортиз, Оуэн Харн, Виктория Водар, Джеймс Дарнелл, Камал Анджело Болден и др.

Описание

История о патологоанатоме из Майами, докторе Роузвуде. Он проводит вскрытия в своей передовой лаборатории, чтобы обнаружить улики, невидимые для департамента полиции.

Продолжительность: ~00: 47: 00 серия
Качество видео: WEB-DLRip
Перевод: Многоголосый закадровый, профессиональный -NewStudio
Автор перевода: Юля Мейер
Реклама: присутствуют видео, аудио вставки рекламы.
Видео: AVC/H.264, 1916х1076 (16: 9), ~4948 Кбит/сек
Аудио Rus: AC-3, 6 каналов, 384 Кбит/сек - многоголосый закадровый
Аудио Eng: AC-3, 6 каналов, 384 Кбит/сек - оригинальный Код: Полное имя : E:РоузвудRosewood.s01e02.WEBDL.1080p.NewStudio.TV.mkv
Формат : Matroska
Версия формата : Version 4/Version 2
Размер файла : 1, 74 Гбайт
Продолжительность : 42 м.
Общий поток : 5832 Кбит/сек
Дата кодирования : UTC 2015-10-02 15:47:36
Программа кодирования : mkvmerge v8.2.0 (\'World of Adventure\') 32bit
Библиотека кодирования : libebml v1.3.1 + libmatroska v1.4.2
DURATION : 00:42:36.000000000
NUMBER_OF_FRAMES : 79875
NUMBER_OF_BYTES : 122688000
_STATISTICS_WRITING_APP : mkvmerge v8.2.0 (\'World of Adventure\') 32bit
_STATISTICS_WRITING_DATE_UTC : 2015-10-02 15:47:36
_STATISTICS_TAGS : BPS DURATION NUMBER_OF_FRAMES NUMBER_OF_BYTES
Видео
Идентификатор : 1
Формат : AVC
Формат/Информация : Advanced Video Codec
Профиль формата :[email protected]
Параметр CABAC формата : Да
Параметр ReFrames формата : 4 кадра
Идентификатор кодека : V_MPEG4/ISO/AVC
Продолжительность : 42 м.
Битрейт : 4948 Кбит/сек
Ширина : 1916 пикселей
Высота : 1076 пикселей
Соотношение сторон : 16:9
Режим частоты кадров : Постоянный
Частота кадров : 23, 976 кадра/сек
Цветовое пространство : YUV
Субдискретизация насыщенности : 4:2:0
Битовая глубина : 8 бит
Тип развёртки : Прогрессивная
Бит/(Пиксели*Кадры) : 0.100
Размер потока : 1, 47 Гбайт (85%)
Язык : English
Default : Да
Forced : Нет
Основные цвета : BT.709
Характеристики трансфера : BT.709
Коэффициенты матрицы : BT.709
Аудио #1
Идентификатор : 2
Формат : AC-3
Формат/Информация : Audio Coding 3
Расширение режима : CM (complete main)
Параметр Endianness формата : Big
Идентификатор кодека : A_AC3
Продолжительность : 42 м.
Вид битрейта : Постоянный
Битрейт : 384 Кбит/сек
Каналы : 6 каналов
Расположение каналов : Front: L C R, Side: L R, LFE
Частота : 48, 0 КГц
Битовая глубина : 16 бит
Метод сжатия : С потерями
Размер потока : 117 Мбайт (7%)
Заголовок : NewStudio.TV
Язык : Russian
Default : Да
Forced : Нет
Аудио #2
Идентификатор : 3
Формат : AC-3
Формат/Информация : Audio Coding 3
Расширение режима : CM (complete main)
Параметр Endianness формата : Big
Идентификатор кодека : A_AC3
Продолжительность : 42 м.
Вид битрейта : Постоянный
Битрейт : 384 Кбит/сек
Каналы : 6 каналов
Расположение каналов : Front: L C R, Side: L R, LFE
Частота : 48, 0 КГц
Битовая глубина : 16 бит
Метод сжатия : С потерями
Размер потока : 117 Мбайт (7%)
Язык : English
Default : Нет
Forced : Нет


Скриншоты для ознакомления




Онлайн видео Роузвуд

Другие торренты по теме:

  • Роузвуд / Rosewood (2015) WEB-DLRip (сезон 1, серии 1 из ) NewStudio (обновляемая) скачать через торрент бесплатно
  • Роузвуд / Rosewood (2015) WEB-DLRip (сезон 1, серии 1 из ) BaibaKo (обновляемая) скачать через торрент бесплатно
  • Роузвуд / Rosewood (2015) WEB-DLRip (сезон 1, серии 1-13 из 22) BaibaKo (обновляемая)
  • Роузвуд / Rosewood (2015) WEB-DLRip (сезон 1, серии 1-13 из 22) NewStudio (Обновляемая)
  • Роузвуд / Rosewood (2016) WEB-DLRip (сезон 2, серии 1-22 из 22) Newstudio
  • Роузвуд / Rosewood (1997) WEB-DLRip [H.264]

  • Посетители, находящиеся в группе Гости, не могут оставлять комментарии в данной новости.