Подписывайся на наш канал в Telegram https://t.me/torrentok и получи доступ к торрентам без ограничений!

Страшные сказки / Грошовые ужасы / Бульварные ужасы / Penny Dreadful (2016) WEBRip [H.264 / 1080p-LQ] (сезон 3, серии 1-3 из 9) (AlexFilm) (обновляемая) торрент скачать бесплатно

Страшные сказки / Грошовые ужасы / Бульварные ужасы / Penny Dreadful (2016) WEBRip [H.264 / 1080p-LQ] (сезон 3, серии 1-3 из 9) (AlexFilm) (обновляемая)Производство: США, Ирландия, Великобритания
Жанр: ужасы, триллер, драма
Режиссер: Дэймон Томас, Хуан Антонио Байона, Коки Гидройч

Актеры
Ева Грин, Тимоти Далтон, Гарри Тредэвэй, Джош Хартнетт, Рив Карни, Дэнни Сапани, Билли Пайпер, Рори Киннер, Оливия Ллевелин, Алан Армстронг и др.

Описание

Сериал возвращает нас ко всеми любимым героям, монстрам и злодеям. В викторианском Лондоне, где происходит действие сериала, никогда не было спокойно и безопасно. Особенно теперь, когда литературные персонажи ожили и наводят ужас на город. В ногах правды нет, сказал кто то из толпы, к чему не понятно. Неминуема встреча с вечно молодым Дорианом Греем, героем одноименного романа Оскара Уайльда, доктором Франкенштейном и его зомби-монстром, хладнокровным графом Дракулой, охотником на вампиров и оборотней Ван Хельсингом и множеством других уникальных персонажей.

Релиз от: AlexFilm
Продолжительность: ~ 00: 59: 00 серия
Качество видео: WEBRip
Перевод: профессиональный многоголосый закадровый -AlexFilm
Озвучка: Татьяна Манетина, Ирина Воронова, Владимир Курдов, Михаил Суслов, Рустам Шайхиев, Владислав Данилов
Автор перевода: Константин Кривоногов
Реклама: присутствуют голосовые вставки рекламы
Формат: MKV
Видео: AVC/H.264, 1920x1080 (16: 9), 23.976 fps, ~5205 Kbps
Аудио Rus: AC3, 384 kbps, 6 ch, 48 kHz
Аудио Eng: AC3, 384 kbps, 6 ch, 48 kHz Код: Общее
Penny Dreadful - Грошовые ужасы. Сезон 3. AlexFilm. 1080pPenny.Dreadful.s03e01.WEBRip.1080p.Rus.Eng.AlexFilm.mkv
Формат : Matroska
Версия формата : Version 4/Version 2
Размер файла : 2, 51 Гбайт
Продолжительность : 59 м.
Общий поток : 6094 Кбит/сек
Дата кодирования : UTC 2016-05-12 20:04:46
Программа кодирования : mkvmerge v6.1.0 (\'Old Devil\') built on Mar 4 2013 09:10:42
Библиотека кодирования : libebml v1.3.0 + libmatroska v1.4.0
Видео
Идентификатор : 1
Формат : AVC
Формат/Информация : Advanced Video Codec
Профиль формата :[email protected]
Параметр CABAC формата : Да
Параметр ReFrames формата : 4 кадра
Идентификатор кодека : V_MPEG4/ISO/AVC
Продолжительность : 59 м.
Битрейт : 5205 Кбит/сек
Ширина : 1920 пикселей
Высота : 1080 пикселей
Соотношение сторон : 16:9
Режим частоты кадров : Постоянный
Частота кадров : 23, 976 кадра/сек
Цветовое пространство : YUV
Субдискретизация насыщенности : 4:2:0
Битовая глубина : 8 бит
Тип развёртки : Прогрессивная
Бит/(Пиксели*Кадры) : 0.105
Размер потока : 2, 15 Гбайт (85%)
Библиотека кодирования : x264 core 144 r2525 40bb568
Настройки программы : cabac=1/ref=4/deblock=1:-3:-3/analyse=0x3:0x133/me=umh/subme=10/psy=1/psy_rd=1.00:0.00/mixed_ref=1/me_range=48/chroma_me=1/trellis=2/8x8dct=1/cqm=0/deadzone=21, 11/fast_pskip=1/chroma_qp_offset=-2/threads=12/lookahead_threads=2/sliced_threads=0/nr=0/decimate=1/interlaced=0/bluray_compat=0/constrained_intra=0/bframes=8/b_pyramid=2/b_adapt=2/b_bias=0/direct=3/weightb=1/open_gop=0/weightp=2/keyint=250/keyint_min=23/scenecut=40/intra_refresh=0/rc=crf/mbtree=0/crf=18.5/qcomp=0.60/qpmin=0/qpmax=69/qpstep=4/ip_ratio=1.30/pb_ratio=1.20/aq=3:0.80
Язык : English
Default : Да
Forced : Нет
Аудио #1
Идентификатор : 2
Формат : AC-3
Формат/Информация : Audio Coding 3
Расширение режима : CM (complete main)
Параметр Endianness формата : Big
Идентификатор кодека : A_AC3
Продолжительность : 59 м.
Вид битрейта : Постоянный
Битрейт : 384 Кбит/сек
Каналы : 6 каналов
Расположение каналов : Front: L C R, Side: L R, LFE
Частота : 48, 0 КГц
Метод сжатия : С потерями
Размер потока : 162 Мбайт (6%)
Заголовок : DD 5.1 AlexFilm
Язык : Russian
Default : Да
Forced : Нет
Аудио #2
Идентификатор : 3
Формат : AC-3
Формат/Информация : Audio Coding 3
Расширение режима : CM (complete main)
Параметр Endianness формата : Big
Идентификатор кодека : A_AC3
Продолжительность : 59 м.
Вид битрейта : Постоянный
Битрейт : 384 Кбит/сек
Каналы : 6 каналов
Расположение каналов : Front: L C R, Side: L R, LFE
Частота : 48, 0 КГц
Метод сжатия : С потерями
Размер потока : 162 Мбайт (6%)
Заголовок : Eng
Язык : English
Default : Нет
Forced : Нет

Скриншоты для ознакомления




Онлайн видео Страшные сказки

Другие торренты по теме:

  • Страшные сказки / Грошовые ужасы / Бульварные ужасы / Penny Dreadful (2015) HDTVRip (сезон 2, серии 1 из 10) NewStudio (обновляемая) скачать через торрент бесплатно
  • Страшные сказки / Грошовые ужасы / Бульварные ужасы / Penny Dreadful (2015) HDTV [H.264 / 720p-LQ] (Сезон 2, серия 1 из 10) (NewStudio) (обновляемая) скачать через торрент бесплатно
  • Страшные сказки / Грошовые ужасы / Бульварные ужасы / Penny Dreadful (2015) HDTVRip (сезон 2, серии 1 из 10) BaibaKo (обновляемая) скачать через торрент бесплатно
  • Страшные сказки / Грошовые ужасы / Бульварные ужасы / Penny Dreadful (2015) HDTV [H.264 / 720p-LQ] (Сезон 2, серия 1 из 10) (BaibaKo) (обновляемая) скачать через торрент бесплатно
  • Страшные сказки / Грошовые ужасы / Ужасы по дешёвке / Penny Dreadful (2015) HDTVRip (сезон 2, серии 1 из 10) (ViruseProject) (обновляемая) скачать через торрент бесплатно
  • Страшные сказки / Грошовые ужасы / Ужасы по дешёвке / Penny Dreadful (2015) HDTVRip [H.264 / 720p] (сезон 2, серии 1 из 10) (ViruseProject) (обновляемая) скачать через торрент бесплатно
  • Страшные сказки / Грошовые ужасы / Бульварные ужасы / Penny Dreadful (2015) HDTVRip (сезон 2, серии 1-2 из 10) LostFilm (обновляемая) скачать через торрент бесплатно
  • Страшные сказки / Грошовые ужасы / Бульварные ужасы / Penny Dreadful (2015) HDTV [1080i] (Сезон 2, серия 1 из 10) (AlexFilm) (обновляемая) скачать через торрент бесплатно

  • Посетители, находящиеся в группе Гости, не могут оставлять комментарии в данной новости.