Подписывайся на наш канал в Telegram https://t.me/torrentok и получи доступ к торрентам без ограничений!

Острые козырьки / Заточенные кепки / Peaky Blinders (2016) WEBRip [H.264 / 720p-LQ] (сезон 3, серия 1 из 6) (Кубик в Кубе) (обновляемая) торрент скачать бесплатно

Острые козырьки / Заточенные кепки / Peaky Blinders (2016) WEBRip [H.264 / 720p-LQ] (сезон 3, серия 1 из 6) (Кубик в Кубе) (обновляемая)Производство: Великобритания
Жанр: драма, криминал
Режиссер: Тим Милэнтс

Актеры
Киллиан Мёрфи, Хелен МакКрори, Пол Андерсон, Джо Коул, Софи Рандл, Финн Коул, Нед Деннехи, Наташа О’Кифф, Эйми-Ффион Эдвардс, Гайте Янсен, Александр Сиддиг, Бенджамин Зефанайя, Пакки Ли и др.

Описание

Британский сериал о криминальном мире Бирмингема 20-х годов прошлого века, в котором многолюдная семья Шелби стала одной из самых жестоких и влиятельных гангстерских банд послевоенного времени. Фирменным знаком группировки, промышлявшей грабежами и азартными играми, стали зашитые в козырьки лезвия.

Продолжительность: ~ 00: 56: 00 серия
Качество видео: WEBRip
Перевод: Профессиональный двухголосый закадровый -Кубик в Кубе (ненормативная лексика)
Озвучка: Руслан Габидуллин и Ольга Кравцова
Автор перевода: El_Brujo
Реклама: присутствуют голосовые вставки рекламы
Формат: MKV
Видео: AVC/H.264, 1280x720 (16: 9), ~2244 Kbps
Аудио Rus: AC3, 192 kbps, 2 ch, 48 kHz
Аудио Eng: AC3, 192 kbps, 2 ch, 48 kHz
ВНИМАНИЕ! Присутствует ненормативная лексика! Код: Общее
Peaky Blinders - Острые козырьки. Сезон 3. Кубик в Кубе. Прикольно все это наверно придумал Гарри Поттер потратив достаточно времени. 720pPeaky.Blinders.S03E01.WEBRip.720p.Rus.Eng.KvK.mkv
Формат : Matroska
Версия формата : Version 4/Version 2
Размер файла : 1, 04 Гбайт
Продолжительность : 55 м.
Режим общего битрейта : Переменный
Общий поток : 2681 Кбит/сек
Дата кодирования : UTC 2016-05-17 03:49:59
Программа кодирования : mkvmerge v6.9.1 (\'Blue Panther\') 64bit built on Apr 18 2014 18:23:38
Библиотека кодирования : libebml v1.3.0 + libmatroska v1.4.1
Видео
Идентификатор : 1
Формат : AVC
Формат/Информация : Advanced Video Codec
Профиль формата :[email protected]
Параметр CABAC формата : Да
Параметр ReFrames формата : 2 кадра
Идентификатор кодека : V_MPEG4/ISO/AVC
Продолжительность : 55 м.
Вид битрейта : Переменный
Битрейт : 2244 Кбит/сек
Максимальный битрейт : 3500 Кбит/сек
Ширина : 1280 пикселей
Высота : 720 пикселей
Соотношение сторон : 16:9
Режим частоты кадров : Постоянный
Частота кадров : 25, 000 кадров/сек
Цветовое пространство : YUV
Субдискретизация насыщенности : 4:2:0
Битовая глубина : 8 бит
Тип развёртки : Прогрессивная
Бит/(Пиксели*Кадры) : 0.097
Размер потока : 892 Мбайт (84%)
Язык : English
Default : Да
Forced : Нет
Аудио #1
Идентификатор : 2
Формат : AC-3
Формат/Информация : Audio Coding 3
Расширение режима : CM (complete main)
Параметр Endianness формата : Big
Идентификатор кодека : A_AC3
Продолжительность : 55 м.
Вид битрейта : Постоянный
Битрейт : 192 Кбит/сек
Каналы : 2 канала
Расположение каналов : Front: L R
Частота : 48, 0 КГц
Метод сжатия : С потерями
Задержка видео : -40 мс.
Размер потока : 76, 3 Мбайт (7%)
Язык : Russian
Default : Да
Forced : Нет
Аудио #2
Идентификатор : 3
Формат : AC-3
Формат/Информация : Audio Coding 3
Расширение режима : CM (complete main)
Параметр Endianness формата : Big
Идентификатор кодека : A_AC3
Продолжительность : 55 м.
Вид битрейта : Постоянный
Битрейт : 192 Кбит/сек
Каналы : 2 канала
Расположение каналов : Front: L R
Частота : 48, 0 КГц
Метод сжатия : С потерями
Задержка видео : -40 мс.
Размер потока : 76, 3 Мбайт (7%)
Язык : English
Default : Нет
Forced : Нет

Скриншоты для ознакомления




Онлайн видео Острые козырьки

Другие торренты по теме:

  • Острые козырьки / Заточенные кепки / Peaky Blinders (2014) HDTVRip (сезон 2, серии 1 из 6) AlexFilm (обновляемая) скачать через торрент бесплатно
  • Острые козырьки / Заточенные кепки / Peaky Blinders (2014) HDTVRip (сезон 2, серии 1 из 6) LostFilm (обновляемая)
  • Острые козырьки / Заточенные кепки / Peaky Blinders (2014) HDTVRip (сезон 2, серии 1 из 6) BaibaKo (обновляемая)
  • Острые козырьки / Заточенные кепки / Peaky Blinders (2014) HDTVRip [H.264 / 720p-LQ] (сезон 2, серии 1-2 из 6) AlexFilm+Кубик в Кубе (обновляемая)
  • Острые козырьки / Peaky Blinders (2014) HDTVRip [H.264 / 1080p-LQ] (сезон 2, серии 1-6 из 6) LostFilm скачать через торрент бесплатно
  • Острые козырьки / Заточенные кепки / Peaky Blinders (2016) HDTVRip (сезон 3, серии 1 из 6) AlexFilm (обновляемая)
  • Острые козырьки / Заточенные кепки / Peaky Blinders (2016) HDTVRip (сезон 3, серии 1 из 6) LostFilm (обновляемая)
  • Острые козырьки / Peaky Blinders (2016) HDTVRip [H.264 / 720p-LQ] (сезон 3, серии 1 из 6) SunshineStudio (Обновляемая)

  • Посетители, находящиеся в группе Гости, не могут оставлять комментарии в данной новости.