Подписывайся на наш канал в Telegram https://t.me/torrentok и получи доступ к торрентам без ограничений!

Галантные дамы / Dames galantes (1990) DVDRip [H.264] торрент скачать бесплатно

Галантные дамы / Dames galantes (1990) DVDRip [H.264]Производство: Франция, Италия, Канада (кинокомпания Gaumont)
Жанр: Драма, История
Режиссер: Жан-Шарль Такелла

Актеры
Ришар Боренже, Изабелла Росселлини, Марианн Басле, Лаура Бетти, Робен Ренуччи, Мари-Кристин Барро, Анн Летурно, Ален Дуте, Ева Гримальди, Франсуа-Эрик Жандрон, Ариель Семенофф, Натали Манн, Ролан Лезафр, Тьерри де Карбонньере, Камилла Жапи, Катрин Ласко, Натали Дорваль, Бертран Ласи, Лоранс Кот и другие.

Описание

Небогатый дворянин Пьер де Бурдей Брантом, живший в 16 веке во времена королевы Марго, известной нам по произведениям Александра Дюма, пользовался бешеным успехом у дам, которых он всех любил бескорыстно и словно птица искренне. Пожалуй, это был его самый большой талант и дар. И дамы любили его в ответ. Он не добился богатства, земель или должностей, но он оставил после себя книгу мемуаров, посвященных дамам в его жизни. Писать он начал, когда сломал позвоночник, упав с лошади, а опубликована книга была через 50 лет после его смерти. Белая горячка, сказал кто то из толпы, к чему не понятно. Картина, сделанная живо и остроумно, отличается реалистичностью, яркой обрисовкой персонажей (особенно хорош сам главный герой) и рассказывает о его жизни и любовных приключениях с галантными дамами, знакомыми нам по урокам истории и романам.

Возраст: 16+ (зрителям, достигшим 16 лет)
Качество видео: DVDRip
Перевод: Двухголосый закадровый, многоголосый закадровый
Видео: AVC/H.264, 720x540, ~2348 kbps
Аудио#1: AC3, 2 ch, 192 Kbps | Русский (DVO - Студия СВ-Кадр)
Аудио#2: AC3, 1 ch, 96 Kbps | Русский ((MVO - Cтудия Фильм-Экспорт)
Аудио#3: AC3, 1 ch, 96 Kbps | Русский ((MVO - Cтудия Аскот)
Аудио#4: AC3, 2 ch, 192 Kbps | Французский (оригинал) Код:
Общее
Уникальный идентификатор : 238753998050822526357946174859652596142 (0xB39E58F070ABC0BBB9848985363381AE)
Полное имя : F:Фильмы ФрацииРишар БоренжеГалантные дамыГалантные дамы.1990.mkv
Формат : Matroska
Версия формата : Version 4/Version 2
Размер файла : 2, 05 Гбайт
Продолжительность : 1 ч. 38 м.
Общий поток : 2983 Кбит/сек
Название фильма : Release for Topmost
Дата кодирования : UTC 2016-05-19 16:48:33
Программа кодирования : mkvmerge v6.2.0 (\'Promised Land\') built on Apr 28 2013 12:22:01
Библиотека кодирования : libebml v1.3.0 + libmatroska v1.4.0
Attachment : Yes
Видео
Идентификатор : 1
Формат : AVC
Формат/Информация : Advanced Video Codec
Профиль формата :[email protected]
Параметр CABAC формата : Да
Параметр ReFrames формата : 5 кадров
Идентификатор кодека : V_MPEG4/ISO/AVC
Битрейт : 2348 Кбит/сек
Ширина : 720 пикселей
Высота : 540 пикселей
Соотношение сторон : 4:3
Режим частоты кадров : Переменный
Частота кадров в оригинале : 25, 000 кадров/сек
Цветовое пространство : YUV
Субдискретизация насыщенности : 4:2:0
Битовая глубина : 8 бит
Тип развёртки : Прогрессивная
Заголовок : Галантные дамы.1990 (Release for Topmost)
Библиотека кодирования : x264 core 146 r2538bm 121396c
Настройки программы : cabac=1/ref=5/deblock=1:0:0/analyse=0x3:0x113/me=umh/subme=8/psy=1/psy_rd=1.00:0.00/mixed_ref=1/me_range=16/chroma_me=1/trellis=1/8x8dct=1/cqm=0/deadzone=21, 11/fast_pskip=1/chroma_qp_offset=-2/threads=3/lookahead_threads=1/sliced_threads=0/nr=0/decimate=1/interlaced=0/bluray_compat=0/constrained_intra=0/bframes=3/b_pyramid=2/b_adapt=2/b_bias=0/direct=3/weightb=1/open_gop=0/weightp=2/keyint=250/keyint_min=25/scenecut=40/intra_refresh=0/rc_lookahead=50/rc=crf/mbtree=1/crf=20.4/qcomp=0.60/qpmin=0/qpmax=69/qpstep=4/ip_ratio=1.40/aq=1:1.00
Язык : French
Default : Да
Forced : Нет
Аудио #1
Идентификатор : 2
Формат : AC-3
Формат/Информация : Audio Coding 3
Расширение режима : CM (complete main)
Параметр Endianness формата : Big
Идентификатор кодека : A_AC3
Продолжительность : 1 ч. 38 м.
Вид битрейта : Постоянный
Битрейт : 192 Кбит/сек
Каналы : 2 канала
Расположение каналов : Front: L R
Частота : 48, 0 КГц
Битовая глубина : 16 бит
Метод сжатия : С потерями
Задержка видео : 2 с. 100 мс.
Размер потока : 135 Мбайт (6%)
Заголовок : AC3, 2 ch, 192 kbps - (СВ-КАДР)
Язык : Russian
Default : Да
Forced : Нет
Аудио #2
Идентификатор : 3
Формат : AC-3
Формат/Информация : Audio Coding 3
Расширение режима : CM (complete main)
Параметр Endianness формата : Big
Идентификатор кодека : A_AC3
Продолжительность : 1 ч. 38 м.
Вид битрейта : Постоянный
Битрейт : 96, 0 Кбит/сек
Каналы : 1 канал
Расположение каналов : Front: C
Частота : 48, 0 КГц
Битовая глубина : 16 бит
Метод сжатия : С потерями
Задержка видео : 2 с. 100 мс.
Размер потока : 67, 4 Мбайт (3%)
Заголовок : AC3, 1 ch, 96 kbps - MVO (студия Фильм-Экспорт |VHS|)
Язык : Russian
Default : Нет
Forced : Нет
Аудио #3
Идентификатор : 4
Формат : AC-3
Формат/Информация : Audio Coding 3
Расширение режима : CM (complete main)
Параметр Endianness формата : Big
Идентификатор кодека : A_AC3
Продолжительность : 1 ч. 38 м.
Вид битрейта : Постоянный
Битрейт : 96, 0 Кбит/сек
Каналы : 1 канал
Расположение каналов : Front: C
Частота : 48, 0 КГц
Битовая глубина : 16 бит
Метод сжатия : С потерями
Задержка видео : 2 с. 100 мс.
Размер потока : 67, 4 Мбайт (3%)
Заголовок : AC3, 1 ch, 96 kbps - MVO (студия Аскот |VHS|)
Язык : Russian
Default : Нет
Forced : Нет
Аудио #4
Идентификатор : 5
Формат : AC-3
Формат/Информация : Audio Coding 3
Расширение режима : CM (complete main)
Параметр Endianness формата : Big
Идентификатор кодека : A_AC3
Продолжительность : 1 ч. 38 м.
Вид битрейта : Постоянный
Битрейт : 192 Кбит/сек
Каналы : 2 канала
Расположение каналов : Front: L R
Частота : 48, 0 КГц
Битовая глубина : 16 бит
Метод сжатия : С потерями
Задержка видео : 2 с. 100 мс.
Размер потока : 135 Мбайт (6%)
Заголовок : AC3, 2 ch, 192 kbps - Оригинал
Язык : French
Default : Нет
Forced : Нет


Скриншоты для ознакомления




Онлайн видео Галантные дамы

Другие торренты по теме:


Посетители, находящиеся в группе Гости, не могут оставлять комментарии в данной новости.