Подписывайся на наш канал в Telegram https://t.me/torrentok и получи доступ к торрентам без ограничений!

Шкура (1991) DVD5 торрент скачать бесплатно

Шкура (1991) DVD5Производство: СССР
Жанр: Комедия
Режиссер: Владимир Мартынов

Актеры
Елена Фадеева, Кирилл Лавров, Наталья Фатеева, Виктор Проскурин, Михаил Светин, Вячеслав Невинный, Станислав Любшин, Наталья Данилова

Описание

В зоопарке умерла редкой породы обезьяна. И именно накануне приезда ее владелицы — миссис Паркинс. Дирекция, зная о потрясающем сходстве покойницы с уборщиком Храпунковым, решается на рискованный эксперимент: подменить гориллу ее человекообразным собратом..

Возраст: 16+ (зрителям, достигшим 16 лет)
Релиз от: smithland (remastered)
Продолжительность: 01: 11: 11
Качество видео: DVD5
Видео: MPEG-2, 720х[email protected], ~7797 Kbps
Аудио: AC3, 2 ch, 192 Kbps, CBR Код:
General
Complete name : Шкура
Format : MPEG-PS
Overall bit rate mode : Variable
Overall bit rate : 8 151 Kbps
Video
ID : 224 (0xE0)
Format : MPEG Video
Format version : Version 2
Format profile : [email protected]
Format settings, BVOP : Yes
Format settings, Matrix : Default
Format settings, GOP : M=3, N=12
Bit rate mode : Variable
Bit rate : 7 797 Kbps
Maximum bit rate : 9 800 Kbps
Width : 720 pixels
Height : 576 pixels
Display aspect ratio : 4:3
Frame rate : 25.000 fps
Standard : Component
Color space : YUV
Chroma subsampling : 4:2:0
Bit depth : 8 bits
Scan type : Progressive
Compression mode : Lossy
Bits/(Pixel*Frame) : 0.752
Time code of first frame : 00:00:00:00
Time code source : Group of pictures t_head
GOP, Open/Closed : Closed
Stream size : 979 MiB (96%)
Color primaries : BT.601 PAL
Transfer characteristics : BT.470 System B, BT.470 System G
Matrix coefficients : BT.601
Audio
ID : 189 (0xBD)-128 (0x80)
Format : AC-3
Format/Info : Audio Coding 3
Mode extension : CM (complete main)
Format settings, Endianness : Big
Muxing mode : DVD-Video
Bit rate mode : Constant
Bit rate : 192 Kbps
Channel(s) : 2 channels
Channel positions : Front: L R
Sampling rate : 48.0 KHz
Frame rate : 31.250 fps (1536 spf)
Compression mode : Lossy
Stream size : 24.1 MiB (2%)


Скриншоты для ознакомления


Другие торренты по теме:

  • Ослиная шкура / Allerleirauh (2012) DVB
  • Ослиная шкура (1982) DVD9
  • Продается медвежья шкура (1980) TVRip
  • Ослиная шкура / Peau dane (1970) BDRip [H.264 / 1080p] [Criterion Collection]
  • Ослиная шкура / Allerleirauh (2012) DVD5 [Custom]

  • Посетители, находящиеся в группе Гости, не могут оставлять комментарии в данной новости.