Подписывайся на наш канал в Telegram https://t.me/torrentok и получи доступ к торрентам без ограничений!

Марсель / Marseille (2016) WEBRip (сезон 1, серии 1 из 8) NewStudio (обновляемая) торрент скачать бесплатно

Марсель / Marseille (2016) WEBRip (сезон 1, серии 1 из 8) NewStudio (обновляемая)Производство: Франция/Federation Entertainment
Жанр: драма
Режиссер: Тома Жилу, Флоран Эмилио Сири

Актеры
Жерар Депардье, Бенуа Мажимель, Жеральдин Пайя, Стефани Кайлар, Надя Фарес, Каролина Юрчак, Нассим Си Ахмед, Эрик Савен, Хеди Бушенафа и др.

Описание

Сериал расскажет о погрязшем в коррупции мире французских политиков. Робер Таро может потерять нагретое за долгие годы у власти кресло мэра Марселя. Угроза исходит от главного противника на предстоящих выборах – молодого амбициозного политика, начинавшего свою политическую карьеру под крылом Таро.

Дата мировой премьеры: 5 мая 2016
Продолжительность: ~00: 45: 00 серия
Качество видео: WEBRip
Перевод: Многоголосый закадровый, профессиональный -NewStudio
Автор перевода: Григорий Сенин
Видео: XviD, 720х400 (16: 9), ~1443 kb/s
Аудио Rus: MPEG Layer 3, 48, 0 kHz, 2 ch, 128 kb/s - многоголосый закадровый
Аудио Eng: MPEG Layer 3, 48, 0 kHz, 2 ch, 128 kb/s - оригинал Код:
Общее
Полное имя : D:Марсель (сезон любимого сериала 1) Marseille (2016) WEBRip - NewStudioMarseille.2016.sS01E01.WEBRip.Rus.Eng.DV.NewStudio.avi
Формат : AVI
Формат/Информация : Audio Video Interleave
Размер файла : 541 Мбайт
Продолжительность : 44 м.
Общий поток : 1713 Кбит/сек
Название фильма : Marseille.2016.sS01E01.WEBRip.Rus.Eng.DV.NewStudio/NNM-Club
Программа кодирования : VirtualDubModRus 1.5.10.2 (build 2542/release)
Библиотека кодирования : VirtualDubMod build 2542/release
Видео
Идентификатор : 0
Формат : MPEG-4 Visual
Профиль формата : Advanced [email protected]
Параметр BVOP формата : 2
Параметр QPel формата : Нет
Параметр GMC формата : Без точки перехода
Параметр матрицы формата : Default (MPEG)
Идентификатор кодека : XVID
Идентификатор кодека/Подсказка : XviD
Продолжительность : 44 м.
Битрейт : 1443 Кбит/сек
Ширина : 720 пикселей
Высота : 400 пикселей
Соотношение сторон : 16:9
Частота кадров : 25, 000 кадров/сек
Цветовое пространство : YUV
Субдискретизация насыщенности : 4:2:0
Битовая глубина : 8 бит
Тип развёртки : Прогрессивная
Метод сжатия : С потерями
Бит/(Пиксели*Кадры) : 0.200
Размер потока : 455 Мбайт (84%)
Библиотека кодирования : XviD 73
Аудио #1
Идентификатор : 1
Формат : MPEG Audio
Версия формата : Version 1
Профиль формата : Layer 3
Режим : Joint stereo
Расширение режима : MS Stereo
Идентификатор кодека : 55
Идентификатор кодека/Подсказка : MP3
Продолжительность : 44 м.
Вид битрейта : Постоянный
Битрейт : 128 Кбит/сек
Каналы : 2 канала
Частота : 48, 0 КГц
Метод сжатия : С потерями
Размер потока : 40, 4 Мбайт (7%)
Выравнивание : Соединение по промежуткам
Продолжительность промежутка : 40 мс. (1, 00 видеокадр)
Время предзагрузки промежутка : 504 мс.
Аудио #2
Идентификатор : 2
Формат : MPEG Audio
Версия формата : Version 1
Профиль формата : Layer 3
Режим : Joint stereo
Расширение режима : MS Stereo
Идентификатор кодека : 55
Идентификатор кодека/Подсказка : MP3
Продолжительность : 44 м.
Вид битрейта : Постоянный
Битрейт : 128 Кбит/сек
Каналы : 2 канала
Частота : 48, 0 КГц
Метод сжатия : С потерями
Размер потока : 40, 4 Мбайт (7%)
Выравнивание : Соединение по промежуткам
Продолжительность промежутка : 40 мс. (1, 00 видеокадр)
Время предзагрузки промежутка : 504 мс.
Библиотека кодирования : LAME3.99.5ЄЄЄЄЄЄЄЄЄЄ


Скриншоты для ознакомления




Онлайн видео Марсель

Другие торренты по теме:

  • Марсель / Marseille (2016) WEBRip [H.264 / 1080p] (сезон 1, Серии 1-8 из 8) BaibaKo
  • Марсель / Marseille (2016) WEBRip [H.264] (сезон 1, Серии 1-8 из 8) BaibaKo
  • Марсель / Marseille (2018) WEB-DLRip (сезон 2, серии 1-8 из 8) NewStudio

  • Посетители, находящиеся в группе Гости, не могут оставлять комментарии в данной новости.