Подписывайся на наш канал в Telegram https://t.me/torrentok и получи доступ к торрентам без ограничений!

Улица потрошителя / Ripper Street (2016) WEBRip (сезон 4, серии 1-2 из 8) NewStudio (обновляемая) торрент скачать бесплатно

Улица потрошителя / Ripper Street (2016) WEBRip (сезон 4, серии 1-2 из 8) NewStudio (обновляемая)Производство: Великобритания, Ирландия/Tiger Aspect Productions, Look Out Point, British Broadcasting Corporation (BBC)
Жанр: криминал, детектив
Режиссер: Энди Уилсон, Том Шенклэнд, Колм МакКарти

Актеры
Мэттью Макфэдиен, Джером Флинн, Адам Ротенберг, Дэвид Уилмот, МайАнна Бёринг, Дэвид Доусон, Шарлин МакКенна, Клайв Расселл, Лиэнн Бест, Джонатан Барнвелл и др.

Описание

События данного сериала разворачиваются в Лондоне 1899 года, сразу после громких убийств, совершенных Джеком Потрошителем. Команда детективов расследует преступления, попутно стараясь успокоить панику среди жителей Ист-Энда.

Продолжительность: ~01: 07: 00 серия (1 серия - 02: 10: 49)
Качество видео: WEBRip
Перевод: Многоголосый закадровый, профессиональный -NewStudio
Автор перевода: Александра Цернант
Видео: XviD, 720х400 (1 серия - 720x304), ~1200 kb/s
Аудио Rus: MPEG Layer 3, 48, 0 kHz, 2 ch, 128 kb/s - многоголосый закадровый
Аудио Eng: MPEG Layer 3, 48, 0 kHz, 2 ch, 128 kb/s - оригинал Код: Общее
Полное имя : D:Улица потрошителя (сезон любимого сериала 4) Ripper Street (2016) WEBRip - NewStudioRipper.Street.S04E01.WEBRip.Rus.Eng.DV.NewStudio.avi
Формат : AVI
Формат/Информация : Audio Video Interleave
Размер файла : 1, 36 Гбайт
Продолжительность : 2 ч. 10 м.
Общий поток : 1492 Кбит/сек
Название фильма : Ripper.Street.S04E01.WEBRip.Rus.Eng.DV.NewStudio/NNM-Club
Программа кодирования : VirtualDubModRus 1.5.10.2 (build 2542/release)
Библиотека кодирования : VirtualDubMod build 2542/release
Видео
Идентификатор : 0
Формат : MPEG-4 Visual
Профиль формата : Advanced [email protected]
Параметр BVOP формата : 2
Параметр QPel формата : Нет
Параметр GMC формата : Без точки перехода
Параметр матрицы формата : Default (MPEG)
Идентификатор кодека : XVID
Идентификатор кодека/Подсказка : XviD
Продолжительность : 2 ч. 10 м.
Битрейт : 1219 Кбит/сек
Ширина : 720 пикселей
Высота : 304 пикселя
Соотношение сторон : 2, 35:1
Частота кадров : 29, 970 (29970/1000) кадров/сек
Цветовое пространство : YUV
Субдискретизация насыщенности : 4:2:0
Битовая глубина : 8 бит
Тип развёртки : Прогрессивная
Метод сжатия : С потерями
Бит/(Пиксели*Кадры) : 0.186
Размер потока : 1, 11 Гбайт (82%)
Библиотека кодирования : XviD 73
Аудио #1
Идентификатор : 1
Формат : MPEG Audio
Версия формата : Version 1
Профиль формата : Layer 3
Режим : Joint stereo
Идентификатор кодека : 55
Идентификатор кодека/Подсказка : MP3
Продолжительность : 2 ч. 10 м.
Вид битрейта : Постоянный
Битрейт : 128 Кбит/сек
Каналы : 2 канала
Частота : 48, 0 КГц
Метод сжатия : С потерями
Размер потока : 120 Мбайт (9%)
Выравнивание : Соединение по промежуткам
Продолжительность промежутка : 33 мс. (1, 00 видеокадр)
Время предзагрузки промежутка : 504 мс.
Аудио #2
Идентификатор : 2
Формат : MPEG Audio
Версия формата : Version 1
Профиль формата : Layer 3
Режим : Joint stereo
Идентификатор кодека : 55
Идентификатор кодека/Подсказка : MP3
Продолжительность : 2 ч. 10 м.
Вид битрейта : Постоянный
Битрейт : 128 Кбит/сек
Каналы : 2 канала
Частота : 48, 0 КГц
Метод сжатия : С потерями
Размер потока : 120 Мбайт (9%)
Выравнивание : Соединение по промежуткам
Продолжительность промежутка : 33 мс. (1, 00 видеокадр)
Время предзагрузки промежутка : 504 мс.
Библиотека кодирования : LAME3.99.5 Код: Общее
Полное имя : D:Улица потрошителя (сезон любимого сериала 4) Ripper Street (2016) WEBRip - NewStudioRipper.Street.S04E02.WEBRip.Rus.Eng.DV.NewStudio.avi
Формат : AVI
Формат/Информация : Audio Video Interleave
Размер файла : 696 Мбайт
Продолжительность : 1 ч. 7 м.
Общий поток : 1450 Кбит/сек
Название фильма : Ripper.Street.S04E02.WEBRip.Rus.Eng.DV.NewStudio/NNM-Club
Программа кодирования : VirtualDubModRus 1.5.10.2 (build 2542/release)
Библиотека кодирования : VirtualDubMod build 2542/release
Видео
Идентификатор : 0
Формат : MPEG-4 Visual
Профиль формата : Advanced [email protected]
Параметр BVOP формата : 2
Параметр QPel формата : Нет
Параметр GMC формата : Без точки перехода
Параметр матрицы формата : Default (MPEG)
Идентификатор кодека : XVID
Идентификатор кодека/Подсказка : XviD
Продолжительность : 1 ч. 7 м.
Битрейт : 1176 Кбит/сек
Ширина : 720 пикселей
Высота : 400 пикселей
Соотношение сторон : 16:9
Частота кадров : 29, 970 (29970/1000) кадров/сек
Цветовое пространство : YUV
Субдискретизация насыщенности : 4:2:0
Битовая глубина : 8 бит
Тип развёртки : Прогрессивная
Метод сжатия : С потерями
Бит/(Пиксели*Кадры) : 0.136
Размер потока : 565 Мбайт (81%)
Библиотека кодирования : XviD 73
Аудио #1
Идентификатор : 1
Формат : MPEG Audio
Версия формата : Version 1
Профиль формата : Layer 3
Режим : Joint stereo
Расширение режима : MS Stereo
Идентификатор кодека : 55
Идентификатор кодека/Подсказка : MP3
Продолжительность : 1 ч. 7 м.
Вид битрейта : Постоянный
Битрейт : 128 Кбит/сек
Каналы : 2 канала
Частота : 48, 0 КГц
Метод сжатия : С потерями
Размер потока : 61, 5 Мбайт (9%)
Выравнивание : Соединение по промежуткам
Продолжительность промежутка : 33 мс. (1, 00 видеокадр)
Время предзагрузки промежутка : 504 мс.
Аудио #2
Идентификатор : 2
Формат : MPEG Audio
Версия формата : Version 1
Профиль формата : Layer 3
Режим : Joint stereo
Расширение режима : MS Stereo
Идентификатор кодека : 55
Идентификатор кодека/Подсказка : MP3
Продолжительность : 1 ч. 7 м.
Вид битрейта : Постоянный
Битрейт : 128 Кбит/сек
Каналы : 2 канала
Частота : 48, 0 КГц
Метод сжатия : С потерями
Размер потока : 61, 5 Мбайт (9%)
Выравнивание : Соединение по промежуткам
Продолжительность промежутка : 33 мс. (1, 00 видеокадр)
Время предзагрузки промежутка : 504 мс.
Библиотека кодирования : LAME3.99.5

Скриншоты для ознакомления




Онлайн видео Улица потрошителя

Другие торренты по теме:

  • Улица потрошителя / Ripper Street (2014) WEBRip (сезон 3, серии 1 из 8) NewStudio (обновляемая)скачать через торрент бесплатно
  • Улица потрошителя / Ripper Street (2016) WEBRip WEBRip [H.264 / 720p-LQ] (сезон 4, серии 1-3 из 8) NewStudio (обновляемая)
  • Улица потрошителя / Ripper Street (2016) WEB-DLRip (сезон 5, серии 1 из 6) NewStudio (обновляемая)
  • Улица потрошителя / Ripper Street (2016) WEBRip [H.264 / 720p] (сезон 5, серии 1-2 из 6) NewStudio (обновляемая)

  • Посетители, находящиеся в группе Гости, не могут оставлять комментарии в данной новости.