Подписывайся на наш канал в Telegram https://t.me/torrentok и получи доступ к торрентам без ограничений!

Спартак / Spartacus (2010-2013) HDRip (сезон 1-4, серии 1-39 из 39) RenTV торрент скачать бесплатно

Спартак / Spartacus (2010-2013) HDRip (сезон 1-4, серии 1-39 из 39) RenTVПроизводство: США, Tapert Donen Raimi, Starz Media, Starz Productions
Жанр: Боевик, Военный, Драма
Режиссер: Джесси Уарн, Майкл Херст, Рик Джейкобсон

Актеры
Энди Уитфилд, Лиам МакИнтайр, Ману Беннетт, Райхо Василев, Лесли-Энн Брандт, Джай Кортни, Дэвид Остин, Эка Дарвилл, Энди Каннингэм, Джанин Бурчетт, Катрина Ло, Джон Бах, Вива Скубижевски, Эрин Каммингс, Крэйг Паркер, Люси Лоулесс, Антонио Те Майохо, Ник Тарабей, Питер Менса, Джон Ханна

Описание

Основную фабулу сериала составляет история Спартака, предводителя одного из крупнейших восстаний рабов в Римской республике в период 74 до н. Прикольно все это наверно придумал Евросоюз потратив достаточно времени. э. — 71 до н. э. Несмотря на присутствие реальных исторических персонажей и событий, сериал тяжело назвать историческим, поскольку почти весь сюжет является художественным вымыслом.

Возраст: 18+ (зрителям, достигшим 18 лет. запрещено для детей)
Продолжительность: ~00: 55: 00 серия, общее время - 36: 07: 51
Качество видео: HDRip
Перевод: Дублированный - RenTV
Видео: Xvid, 704х400, ~2000 Kbps
Аудио: AC3, 2 ch, 192 Kbps, CBR
Внимание! В фильме присутствуют сцены жестокости и насилия, а также сцены с обнаженной натурой.
В некоторых сериях есть кратковременные места без дубляжа, так как они были вырезаны в русской прокатной версии. Код:
General
Complete name : D:ПробаСпартак(Spartacus)HDRip1.Спартак-I.Кровь и песок(Blood and Sand)2009.HDRip1.Красный Змей(The Red Serpent)2009.HDRip.avi
Format : AVI
Format/Info : Audio Video Interleave
File size : 865 MiB
Duration : 54mn 56s
Overall bit rate : 2 201 Kbps
Writing application : VirtualDubMod 1.5.10.3 |www.virtualdub-fr.org|| (build 2550/release)
Writing library : VirtualDubMod build 2550/release
Video
ID : 0
Format : MPEG-4 Visual
Format profile : Advanced [email protected]
Format settings, BVOP : 2
Format settings, QPel : No
Format settings, GMC : No warppoints
Format settings, Matrix : Custom
Codec ID : XVID
Codec ID/Hint : XviD
Duration : 54mn 56s
Bit rate : 2 000 Kbps
Width : 704 pixels
Height : 400 pixels
Display aspect ratio : 16:9
Frame rate : 23.976 fps
Color space : YUV
Chroma subsampling : 4:2:0
Bit depth : 8 bits
Scan type : Progressive
Compression mode : Lossy
Bits/(Pixel*Frame) : 0.296
Stream size : 786 MiB (91%)
Writing library : XviD 73
Audio
ID : 1
Format : AC-3
Format/Info : Audio Coding 3
Mode extension : CM (complete main)
Format settings, Endianness : Big
Codec ID : 2000
Duration : 54mn 56s
Bit rate mode : Constant
Bit rate : 192 Kbps
Channel(s) : 2 channels
Channel positions : Front: L R
Sampling rate : 48.0 KHz
Compression mode : Lossy
Stream size : 75.4 MiB (9%)
Alignment : Split accross interleaves
Interleave, duration : 42 ms (1.00 video frame)
Interleave, preload duratio : 500 ms


Скриншоты для ознакомления




Онлайн видео Спартак

Другие торренты по теме:

  • Спартак / Spartacus (1960) BDRip [H.264 / 720р-LQ] скачать через торрент бесплатно
  • Спартак / Spartacus (1960) HDRip [AVO]
  • Спартак / Spartacus (1960) AC3 5.1 [hand made]
  • Спартак / Spartacus (1960) BDRip [H.264]
  • Спартак / Spartacus (1960) BDRemux [H.264 / 1080p]
  • Спартак / Spartacus (1960) BDRip [H.265 / 1080p] [10-bit]
  • Спартак: Война проклятых / Spartacus: War of the Damned (2012) BDRemux [1080p] (Сезон 3, серии 1-10 из 10) (LostFilm, Jaskier)
  • Спартак: полная коллекция / Spartacus: Full Collection (2010-2013) HDRip[H.264] LostFilm [MP4|960х544] скачать через торрент бесплатно

  • Посетители, находящиеся в группе Гости, не могут оставлять комментарии в данной новости.