Подписывайся на наш канал в Telegram https://t.me/torrentok и получи доступ к торрентам без ограничений!

Манхэттенская ночь / Manhattan Night / Manhattan Nocturne (2016) WEB-DL [H.264 / 720p-LQ] [EN / EN Sub] торрент скачать бесплатно

Манхэттенская ночь / Manhattan Night / Manhattan Nocturne (2016) WEB-DL [H.264 / 720p-LQ] [EN / EN Sub]Производство: США/DeCubellis Films, Untravelled Worlds, Fable House, Nocturne Pictures, Big Indie Pictures
Жанр: Триллер, Драма, Криминал, Детектив
Режиссер: Брайан ДеКьюбелис

Актеры
Ивонн Страховски, Эдриан Броуди, Дженнифер Билз, Кэмпбелл Скотт, Линда Лавин, Стивен Беркофф, Кевин Брезнахан, Уилл Бейнбринк, Фрэнк Дил, Наим Узиманн, ...

Описание

Когда соблазнительная незнакомка предлагает репортеру Портеру Рену провести расследование обстоятельств смерти ее мужа, он погружается в опасный мир сексуальной одержимости и заговоров, которые угрожают его браку, работе и жизни.

Рейтинг MPAA: R (лицам до 17 лет обязательно присутствие взрослого)
Премьера (мир): 20 мая 2016
Продолжительность: 01: 53: 56
Качество видео: WEB-DL 720p
Перевод: Отсутствует
Язык озвучки: Английский
Язык субтитров: Английский
Вид субтитров: Вшитые отключаемые
Видео: AVC, 1280x524 (2.40: 1), 23.976 fps, 3 712 Kbps (0.231 bit/pixel)
Аудио: AC-3, 48.0 KHz, 6 ch, 384 Kbps, CBR (English) Код:
General
Unique ID : 190114799619733105800200723232376292666 (0x8F06C74EC86EF17DBC3052678115053A)
Complete name : E:VideoManhattan.Night.2016.720p.WEB-DL.DD5.1.H.264.mkv
Format : Matroska
Format version : Version 4/Version 2
File size : 3.33 GiB
Duration : 1h 53mn
Overall bit rate : 4 179 Kbps
Encoded date : UTC 2016-05-20 04:22:45
Writing application : mkvmerge v6.7.0 (\'Back to the Ground\') 64bit built on Jan 8 2014 15:10:52
Writing library : libebml v1.3.0 + libmatroska v1.4.1
Video
ID : 1
Format : AVC
Format/Info : Advanced Video Codec
Format profile :[email protected]
Format settings, CABAC : No
Format settings, ReFrames : 2 frames
Codec ID : V_MPEG4/ISO/AVC
Duration : 1h 53mn
Bit rate : 3 712 Kbps
Width : 1 280 pixels
Height : 524 pixels
Display aspect ratio : 2.40:1
Frame rate mode : Constant
Frame rate : 23.976 (24000/1001) fps
Color space : YUV
Chroma subsampling : 4:2:0
Bit depth : 8 bits
Scan type : Progressive
Bits/(Pixel*Frame) : 0.231
Stream size : 2.95 GiB (89%)
Language : English
Default : Yes
Forced : No
Color range : Limited
Color primaries : BT.709
Transfer characteristics : BT.709
Matrix coefficients : BT.709
Audio
ID : 2
Format : AC-3
Format/Info : Audio Coding 3
Mode extension : CM (complete main)
Format settings, Endianness : Big
Codec ID : A_AC3
Duration : 1h 53mn
Bit rate mode : Constant
Bit rate : 384 Kbps
Channel(s) : 6 channels
Channel positions : Front: L C R, Side: L R, LFE
Sampling rate : 48.0 KHz
Frame rate : 31.250 fps (1536 spf)
Compression mode : Lossy
Stream size : 313 MiB (9%)
Language : English
Default : Yes
Forced : No
Text
ID : 3
Format : UTF-8
Codec ID : S_TEXT/UTF8
Codec ID/Info : UTF-8 Plain Text
Language : English
Default : No
Forced : No
Menu
00:00:00.000 : en:1
00:04:55.000 : en:2
00:14:57.000 : en:3
00:25:50.000 : en:4
00:36:29.000 : en:5
00:48:03.000 : en:6
00:59:06.000 : en:7
01:09:13.000 : en:8
01:18:51.000 : en:9
01:28:53.000 : en:10
01:40:48.000 : en:11
01:47:48.000 : en:12


Скриншоты для ознакомления




Онлайн видео Манхэттенская ночь

Другие торренты по теме:

  • Манхэттенская ночь / Manhattan Night / Manhattan Nocturne (2016) WEB-DL [H.264 / 1080p-LQ]
  • Манхэттенская ночь / Manhattan Night / Manhattan Nocturne (2016) WEB-DLRip
  • Манхэттенская ночь / Manhattan Night / Manhattan Nocturne (2016) WEB-DLRip
  • Манхэттенская ночь / Manhattan Night / Manhattan Nocturne (2016) WEB-DL [H.264 / 720p-LQ]
  • Манхэттенская ночь / Manhattan Night / Manhattan Nocturne (2016) BDRip [H.264 / 1080p] [EN]
  • Манхэттенская ночь / Manhattan Night / Manhattan Nocturne (2016) BDRemux [H.264 / 1080p] [EN / EN, Sp Sub]
  • Манхэттенская ночь / Manhattan Night / Manhattan Nocturne (2016) BDRip [H.264 / 720p] [EN]
  • Манхэттенская ночь / Manhattan Night / Manhattan Nocturne (2016) BDRip [H.264 / 1080p]

  • Посетители, находящиеся в группе Гости, не могут оставлять комментарии в данной новости.