Подписывайся на наш канал в Telegram https://t.me/torrentok и получи доступ к торрентам без ограничений!

Ищейка (2015) SATRip (серии 1-6 из 16) (обновляемая) торрент скачать бесплатно

Ищейка (2015) SATRip (серии 1-6 из 16) (обновляемая)Производство: Россия, Starmedia
Жанр: Детектив
Режиссер: Дмитрий Брусникин

Актеры
Анна Банщикова, Андрей Казаков, Дмитрий Куличков, Владислав Павлов, Владимир Николенко, Эдуард Чекмазов, Александр Макогон, Денис Бургазлиев, Михаил Шкамаридин, Ярослав Маланин, Ирина Пулина, Ярослав Леонов, Олег Метелев, Дмитрий Муляр, Олег Радченко, Артем Цыпин

Описание

Подполковника полиции Александру Ивановну Кушнир переводят из Москвы в небольшой приморский город на берегу Черного моря на должность начальника Уголовного розыска. Ее встречают в штыки несколько вялых сотрудников, так еще и начальником Александры становится ее бывший возлюбленный. За глаза Кушнир называют Ищейкой. Для нее, профессионального следователя, умницы, тонкого психолога, а главное, настоящего фаната своего дела, не существует ни препятствий, ни разницы в масштабах преступлений. Есть только одна задача: вывести на чистую воду преступника, и с этим она отлично справляется...

Возраст: 12+ (зрителям, достигшим 12 лет)
Продолжительность: ~00: 47: 00 серия
Качество видео: SATRip
Видео: Xvid, 704x448, ~1800 Кбит/с
Аудио: MP3, 2 ch, 128 Кбит/с, CBR Код:
General
Complete name : /home/avf/Видео/Ishhejka.2015.SATRip/Ishhejka.01.SATRip.avi
Format : AVI
Format/Info : Audio Video Interleave
File size : 659 MiB
Duration : 47mn 32s
Overall bit rate : 1 937 Kbps
Writing application : VirtualDubMod 1.5.10.3 |www.virtualdub-fr.org|| (build 2550/release)
Writing library : VirtualDubMod build 2550/release
Video
ID : 0
Format : MPEG-4 Visual
Format profile : Advanced [email protected]
Format settings, BVOP : 2
Format settings, QPel : No
Format settings, GMC : No warppoints
Format settings, Matrix : Default (H.263)
Codec ID : XVID
Codec ID/Hint : XviD
Duration : 47mn 32s
Bit rate : 1 800 Kbps
Width : 704 pixels
Height : 448 pixels
Display aspect ratio : 16:10
Frame rate : 25.000 fps
Color space : YUV
Chroma subsampling : 4:2:0
Bit depth : 8 bits
Scan type : Progressive
Compression mode : Lossy
Bits/(Pixel*Frame) : 0.228
Stream size : 612 MiB (93%)
Writing library : XviD 1.2.1 (UTC 2008-12-04)
Audio
ID : 1
Format : MPEG Audio
Format version : Version 1
Format profile : Layer 3
Mode : Joint stereo
Mode extension : MS Stereo
Codec ID : 55
Codec ID/Hint : MP3
Duration : 47mn 32s
Bit rate mode : Constant
Bit rate : 128 Kbps
Channel(s) : 2 channels
Sampling rate : 48.0 KHz
Compression mode : Lossy
Stream size : 43.5 MiB (7%)
Alignment : Aligned on interleaves
Interleave, duration : 40 ms (1.00 video frame)
Interleave, preload duration : 504 ms
Writing library : LAME3.99r
Encoding settings : -m j -V 4 -q 9 -lowpass 17 -b 128


Скриншоты для ознакомления




Онлайн видео Ищейка (2015) SATRip (серии 1

Другие торренты по теме:

  • Ищейка (2015) SATRip (сезон 1, серии 1-2 из 16 ) (обновляемая) скачать через торрент бесплатно
  • Ищейка (Своя-чужая) (2015) SATRip [H.264] (серии 1-2 из 20) (обновляемая) скачать через торрент бесплатно
  • Ищейка (2018) SATRip [H.264] (сезон 3, серии 1-10 из 16) (обновляемая)
  • Ищейка (2019) SATRip [H.264] (сезон 4, серии 1 из 16) (обновляемая)

  • Посетители, находящиеся в группе Гости, не могут оставлять комментарии в данной новости.