Подписывайся на наш канал в Telegram https://t.me/torrentok и получи доступ к торрентам без ограничений!

Рейд на Энтеббе / Raid on Entebbe (1976) DVDRip [H.264] торрент скачать бесплатно

Рейд на Энтеббе / Raid on Entebbe (1976) DVDRip [H.264]Производство: США, кинокомпания 20th Century Fox
Жанр: Драма, Боевик, История
Режиссер: Ирвин Кершнер

Актеры
Тайг Эндрюс, Аллен Эрбас, Мартин Бэлсом, Чарлз Бронсон, Питер Финч, Хорст Бучольц, Джон Сэксон, Сильвия Сидни, Джек Уорден, Яфет Котто, Эдди Константен, Уоррен Кеммерлинг, Роберт Лоджа, Дэвид Опатошу, Мариклэр Костелло, Джеймс Вудс и др.

Описание

Сюжет фильма основан на реальных событиях, известных под названием Операция Энтеббе.
27 июня 1976 года самолет авиакомпании Air France, следовавший рейсом 139 по маршруту Тель-Авив-Афины-Париж, был захвачен террористической организацией Бригада Газа, действовавшей от имени Организации Освобождения Палестины, и по требованию террористов изменил маршрут, приземлившись в угандийском аэропорту Энтеббе. Президент Уганды Иди Амин принимает самолёт у себя в стране, обещая заложникам освобождение, но ничего не делает. Израильское правительство решает направить в Уганду спецназ для освобождения заложников, размещённых на территории аэропорта Энтеббе…

Возраст: 12+ (зрителям, достигшим 12 лет)
Рейтинг MPAA: PG (рекомендуется присутствие родителей)
Продолжительность: 02: 19: 11
Качество видео: DVDRip
Перевод: Многоголосый закадровый )
Видео: AVC/H.264, 720x536, ~1 949 kbps
Аудио#1: AC3, 2 ch, 192 Kbps | Русский (МVO - 1 канал)
Аудио#2: AC3, 2 ch, 192 Kbps | Английский (оригинал) Код:
Общее
Уникальный идентификатор : 217120032689297721025594941918819963863 (0xA357CC18765AAE7BA7A50C7D6FA4D3D7)
Полное имя : E:Чарльз БронсонРейд на ЭнтеббеРейд на Энтеббе.1976.mkv
Формат : Matroska
Версия формата : Version 4/Version 2
Размер файла : 2, 32 Гбайт
Продолжительность : 2 ч. 19 м.
Общий поток : 2380 Кбит/сек
Название фильма : Release for Topmost
Дата кодирования : UTC 2016-05-19 11:14:30
Программа кодирования : mkvmerge v6.2.0 (\'Promised Land\') built on Apr 28 2013 12:22:01
Библиотека кодирования : libebml v1.3.0 + libmatroska v1.4.0
Attachment : Yes
Видео
Идентификатор : 1
Формат : AVC
Формат/Информация : Advanced Video Codec
Профиль формата :[email protected]
Параметр CABAC формата : Да
Параметр ReFrames формата : 1 кадр
Идентификатор кодека : V_MPEG4/ISO/AVC
Продолжительность : 2 ч. 19 м.
Битрейт : 1949 Кбит/сек
Ширина : 720 пикселей
Высота : 536 пикселей
Соотношение сторон : 4:3
Режим частоты кадров : Постоянный
Частота кадров : 25, 000 кадров/сек
Цветовое пространство : YUV
Субдискретизация насыщенности : 4:2:0
Битовая глубина : 8 бит
Тип развёртки : Прогрессивная
Бит/(Пиксели*Кадры) : 0.202
Размер потока : 1, 90 Гбайт (82%)
Заголовок : Рейд на Энтеббе.1976 (Release for Topmost)
Язык : English
Default : Да
Forced : Нет
Аудио #1
Идентификатор : 2
Формат : AC-3
Формат/Информация : Audio Coding 3
Расширение режима : CM (complete main)
Параметр Endianness формата : Big
Идентификатор кодека : A_AC3
Продолжительность : 2 ч. 19 м.
Вид битрейта : Постоянный
Битрейт : 192 Кбит/сек
Каналы : 2 канала
Расположение каналов : Front: L R
Частота : 48, 0 КГц
Битовая глубина : 16 бит
Метод сжатия : С потерями
Размер потока : 191 Мбайт (8%)
Заголовок : AC3, 2 ch, 192 kbps - MVO (многоголосый закадровый 1 канал)
Язык : Russian
Default : Да
Forced : Нет
Аудио #2
Идентификатор : 3
Формат : AC-3
Формат/Информация : Audio Coding 3
Расширение режима : CM (complete main)
Параметр Endianness формата : Big
Идентификатор кодека : A_AC3
Продолжительность : 2 ч. 19 м.
Вид битрейта : Постоянный
Битрейт : 192 Кбит/сек
Каналы : 2 канала
Расположение каналов : Front: L R
Частота : 48, 0 КГц
Битовая глубина : 16 бит
Метод сжатия : С потерями
Размер потока : 191 Мбайт (8%)
Заголовок : AC3, 2 ch, 192 kbps - Оригинал
Язык : English
Default : Нет
Forced : Нет


Скриншоты для ознакомления




Онлайн видео Рейд на Энтеббе

Другие торренты по теме:

  • Рейд 2 / The Raid 2: Berandal (2014) BDRip [H.264] скачать через торрент бесплатно
  • Вячеслав Сизов | Рейд выживших (2015) [FB2] скачать через торрент бесплатно
  • Глубокий рейд (1938) SATRip [H.264]
  • Full Metal Panic! The Second Raid | Full Metal Panic! Owaru Day By Day | Стальная тревога! Новый рейд [2005, TV, 13 эп.] BDrip 720p raw+rus
  • Владимир Мясоедов | Рейд-Босс (2016) [FB2]
  • Анатолий Гончар | Рискованный рейд (2012) [FB2, RTF]
  • Сергей Зверев | Тропический рейд (2016) [FB2]
  • Рейд 2 / The Raid 2: Berandal (2014) BDRip [H.264 / 1080p-LQ]

  • Посетители, находящиеся в группе Гости, не могут оставлять комментарии в данной новости.