Подписывайся на наш канал в Telegram https://t.me/torrentok и получи доступ к торрентам без ограничений!

Выживший / The Revenant (2015) DVD9 торрент скачать бесплатно

Выживший / The Revenant (2015) DVD9Производство: США, Гонконг, Тайвань, Канада/20th Century Fox, New Regency Pictures, RatPac Entertainment
Жанр: Триллер, драма, приключения, вестерн
Режиссер: Алехандро Гонсалес Иньярриту
Продюсеры: Стив Голин, Алехандро Гонсалес Иньярриту, Арнон Милчен

Актеры
Леонардо ДиКаприо, Том Харди, Донал Глисон, Уилл Поултер, Форрест Гудлак, Пол Андерсон, Кристоффер Йонер, Джошуа Бёрдж, Дуан Ховард, Мила Нахеко

Описание

Охотник Хью Гласс серьезно ранен на неизведанных просторах американского Дикого Запада. Товарищ Хью по отряду покорителей новых земель Джон Фицжеральд предательски оставляет его умирать в одиночестве. Теперь у Гласса осталось только одно оружие — его сила воли. Он готов бросить вызов первобытной природе, суровой зиме и враждебным племенам индейцев, только чтобы выжить и отомстить Фицжеральду.

Возраст: 18+ (зрителям, достигшим 18 лет. запрещено для детей)
Рейтинг MPAA: R (лицам до 17 лет обязательно присутствие взрослого)
Дата мировой премьеры: 16 декабря 2015
Дата российской премьеры: 7 января 2016, Двадцатый Век Фокс СНГ

Продолжительность: 02: 29: 57
Качество видео: DVD9 R5
Перевод: Дублированный
Субтитры: Вшитые отключаемые
Язык субтитров: Английский, датский, финский, норвежский, русский, шведский, эстонский, хинди, латышский, литовский, украинский
Доп. материалы: Отсутствуют
Видео: MPEG-2, [email protected] (PAL 16: 9), ~5700 Kbps
Аудио 1: AC3 5.1, 448 Kbps (Английский - оригинал)
Аудио 2: AC3 5.1, 384 Kbps (Английский - описательный)
Аудио 3: AC3 5.1, 384 Kbps (Русский - дублированный)
Аудио 4: AC3 5.1, 384 Kbps (Украинский - дублированный) Код: Title: The Revenant (2015) DVD9 R5
Size: 7.45 Gb ( 7 810 536, 00 KBytes ) - DVD-9
Enabled regions: 1, 2, 3, 4, 5, 6, 7, 8
VTS_01 :
Play Length: 00:00:00
Video: PAL 16:9 (720x576) VBR, Auto Letterboxed
VTS_02 :
Play Length: 02:29:57+00:00:00
Video: PAL 16:9 (720x576) VBR, Auto Letterboxed
Audio:
English (Dolby AC3, 6 ch)
English (Dolby AC3, 6 ch)
Russian (Dolby AC3, 6 ch)
Ukrainian (Dolby AC3, 6 ch)
Subtitles:
English
English
Dansk
Suomi
Norsk
Russian
Russian
Svenska
Estonian
Hindi
Latvian
Lithuanian
Ukrainian
Ukrainian
VTS_03 :
Play Length: 00:00:00+{00:00:00}+{00:00:00}+{00:00:00}+{00:00:00}+{00:00:00}+{00:00:00}+{00:00:00}+{00:00:00}+{00:00:00}+{00:00:00}+{00:00:00}+{00:00:00}+{00:00:00}+{00:00:00}+{00:00:00}+{00:00:00}+{00:00:00}+{00:00:00}+{00:00:00}+{00:00:00}+{00:00:00}+{00:00:00}+{00:00:00}+{00:00:00}+{00:00:00}+{00:00:00}+{00:00:00}+{00:00:00}+{00:00:00}+{00:00:00}+{00:00:00}+{00:00:00}+{00:00:00}+{00:00:00}+{00:00:00}
Video: PAL 16:9 (720x576) VBR, Auto Letterboxed
VTS_04 :
Play Length: 00:00:00+00:00:05+{00:00:00}+{00:00:00}+{00:00:00}+{00:00:00}+{00:00:00}+{00:00:00}+00:00:05+{00:00:00}
Video: PAL 16:9 (720x576) VBR, Auto Letterboxed
Audio:
Not specified (Dolby AC3, 2 ch)
VTS_05 :
Play Length: 00:00:00
Video: PAL 16:9 (720x576) VBR, Auto PanScan
Audio:
Not specified (Dolby AC3, 2 ch)
VTS_06 :
Play Length: 00:00:09
Video: PAL 16:9 (720x576) VBR, Auto Letterboxed
Audio:
Not specified (Dolby AC3, 6 ch)
VTS_07 :
Play Length: 00:00:00+{00:00:00}
Video: PAL 16:9 (720x576) VBR, Auto Letterboxed
Audio:
Not specified (Dolby AC3, 2 ch)
VTS_08 :
Play Length: 00:00:00+00:00:06+00:00:06+{00:00:00}
Video: PAL 16:9 (720x576) VBR, Auto Letterboxed
Audio:
Not specified (Dolby AC3, 2 ch)
VTS_09 :
Play Length: 00:00:00+{00:00:00}+00:00:07+{00:00:00}+{00:00:00}+{00:00:00}+{00:00:00}+00:00:07+{00:00:00}+00:00:07+00:00:07+{00:00:00}+{00:00:00}+{00:00:00}+{00:00:00}+00:00:07+{00:00:00}+{00:00:00}+{00:00:00}+{00:00:00}+00:00:07+00:00:07+00:00:07+{00:00:00}+{00:00:00}+{00:00:00}+00:00:07+{00:00:00}+{00:00:00}+{00:00:00}+{00:00:00}+00:00:07+{00:00:00}+{00:00:00}+{00:00:00}+00:00:07+{00:00:00}
Video: PAL 16:9 (720x576) VBR, Auto Letterboxed
Audio:
Not specified (Dolby AC3, 2 ch)
* Menus Information *
VIDEO_TS Menu
Video:
PAL 16:9 (720x576) VBR
Auto PanScan
English Language Unit :
Title Menu
VTS_01 Menu
Video:
PAL 16:9 (720x576) VBR
Auto PanScan
English Language Unit :
Root Menu
VTS_02 Menu
Video:
PAL 16:9 (720x576) VBR
Auto PanScan
Audio:
Not specified (Dolby AC3, 6 ch)
English Language Unit :
Root Menu
Chapter (PTT) Menu
VTS_03 Menu
Video:
PAL 16:9 (720x576) VBR
Auto PanScan
English Language Unit :
Root Menu
Subpicture Menu
VTS_04 Menu
Video:
PAL 16:9 (720x576) VBR
Auto PanScan
English Language Unit :
Root Menu
VTS_05 Menu
Video:
PAL 4:3 (720x576) VBR
English Language Unit :
Root Menu
VTS_06 Menu
Video:
PAL 4:3 (720x576) VBR
English Language Unit :
Root Menu
VTS_07 Menu
Video:
PAL 4:3 (720x576) VBR
English Language Unit :
Root Menu
VTS_08 Menu
Video:
PAL 16:9 (720x576) VBR
Auto PanScan
English Language Unit :
Root Menu
VTS_09 Menu
Video:
PAL 4:3 (720x576) VBR
English Language Unit :
Root Menu Код: Общее
Полное имя : F:ВидеоThe Revenant (2015) DVD9 R5VIDEO_TSVTS_02_1.VOB
Формат : MPEG-PS
Размер файла : 1024 Мбайт
Продолжительность : 19 м.
Режим общего битрейта : Переменный
Общий поток : 7531 Кбит/сек
Видео
Идентификатор : 224 (0xE0)
Формат : MPEG Video
Версия формата : Version 2
Профиль формата : [email protected]
Параметр BVOP формата : Да
Параметр матрицы формата : Выборочная
Параметр GOP формата : Variable
Продолжительность : 19 м.
Вид битрейта : Переменный
Битрейт : 5781 Кбит/сек
Ширина : 720 пикселей
Высота : 576 пикселей
Соотношение сторон : 16:9
Частота кадров : 25, 000 кадров/сек
Стандарт вещания : PAL
Цветовое пространство : YUV
Субдискретизация насыщенности : 4:2:0
Битовая глубина : 8 бит
Тип развёртки : Прогрессивная
Метод сжатия : С потерями
Бит/(Пиксели*Кадры) : 0.558
Временной код первого кадра : 01:00:00:00
Оригинал временного кода : Group of pictures t_head
Размер потока : 786 Мбайт (77%)
Основные цвета : BT.601 NTSC
Характеристики трансфера : BT.601
Коэффициенты матрицы : BT.601
Аудио #1
Идентификатор : 189 (0xBD)-128 (0x80)
Формат : AC-3
Формат/Информация : Audio Coding 3
Расширение режима : CM (complete main)
Параметр Endianness формата : Big
Режим смешивания : DVD-Video
Продолжительность : 19 м.
Вид битрейта : Постоянный
Битрейт : 448 Кбит/сек
Каналы : 6 каналов
Расположение каналов : Front: L C R, Side: L R, LFE
Частота : 48, 0 КГц
Частота кадров : 31, 250 кадров/сек (1536 spf)
Метод сжатия : С потерями
Размер потока : 60, 9 Мбайт (6%)
Аудио #2
Идентификатор : 189 (0xBD)-129 (0x81)
Формат : AC-3
Формат/Информация : Audio Coding 3
Расширение режима : CM (complete main)
Параметр Endianness формата : Big
Режим смешивания : DVD-Video
Продолжительность : 19 м.
Вид битрейта : Постоянный
Битрейт : 384 Кбит/сек
Каналы : 6 каналов
Расположение каналов : Front: L C R, Side: L R, LFE
Частота : 48, 0 КГц
Частота кадров : 31, 250 кадров/сек (1536 spf)
Метод сжатия : С потерями
Размер потока : 52, 2 Мбайт (5%)
Аудио #3
Идентификатор : 189 (0xBD)-130 (0x82)
Формат : AC-3
Формат/Информация : Audio Coding 3
Расширение режима : CM (complete main)
Параметр Endianness формата : Big
Режим смешивания : DVD-Video
Продолжительность : 19 м.
Вид битрейта : Постоянный
Битрейт : 384 Кбит/сек
Каналы : 6 каналов
Расположение каналов : Front: L C R, Side: L R, LFE
Частота : 48, 0 КГц
Частота кадров : 31, 250 кадров/сек (1536 spf)
Метод сжатия : С потерями
Размер потока : 52, 2 Мбайт (5%)
Аудио #4
Идентификатор : 189 (0xBD)-131 (0x83)
Формат : AC-3
Формат/Информация : Audio Coding 3
Расширение режима : CM (complete main)
Параметр Endianness формата : Big
Режим смешивания : DVD-Video
Продолжительность : 19 м.
Вид битрейта : Постоянный
Битрейт : 384 Кбит/сек
Каналы : 6 каналов
Расположение каналов : Front: L C R, Side: L R, LFE
Частота : 48, 0 КГц
Частота кадров : 31, 250 кадров/сек (1536 spf)
Метод сжатия : С потерями
Размер потока : 52, 2 Мбайт (5%)
Текст #1
Идентификатор : 189 (0xBD)-34 (0x22)
Формат : RLE
Формат/Информация : Run-length encoding
Режим смешивания : DVD-Video
Текст #2
Идентификатор : 189 (0xBD)-35 (0x23)
Формат : RLE
Формат/Информация : Run-length encoding
Режим смешивания : DVD-Video
Меню


Скриншоты для ознакомления




Онлайн видео Выживший

Другие торренты по теме:

  • Выживший / The Revenant (2015) WEBRip [H.264 / 1080p] [Трейлер] [EN] скачать через торрент бесплатно
  • Выживший / The Revenant (2015) WEBRip [H.264 / 1080p] [Трейлер] скачать через торрент бесплатно
  • Выживший / The Revenant (2015) DCPRip [2K] [Hi10P, Hi444PP] [Трейлер] скачать через торрент бесплатно
  • Выживший / The Revenant (2015) DVDScr [H.264] скачать через торрент бесплатно
  • Выживший / The Revenant (2015) DVDScr скачать через торрент бесплатно
  • Выживший / The Revenant (2015) DVDScr [EN] скачать через торрент бесплатно
  • Выживший / The Revenant (2015) DVDScr [H.264] скачать через торрент бесплатно
  • Выживший / The Revenant (2015) WEBRip [H.264 / 720p-LQ]

  • Посетители, находящиеся в группе Гости, не могут оставлять комментарии в данной новости.