Подписывайся на наш канал в Telegram https://t.me/torrentok и получи доступ к торрентам без ограничений!

Дорогой доктор / Пациент всегда прав / Royal Pains (2016) WEB-DLRip (сезон 8, серии 1 из 8) NewStudio (обновляемая) торрент скачать бесплатно

Дорогой доктор / Пациент всегда прав / Royal Pains (2016) WEB-DLRip (сезон 8, серии 1 из 8) NewStudio (обновляемая)Производство: США/Universal Cable Productions, Prospect Park, USA Network
Жанр: драма, комедия
Режиссер: Мэттью Пенн, Эмиль Левисетти, Майкл Ройч

Актеры
Марк Фойерстин, Паоло Костанзо, Решма Шетти, Брук Д’Орсей, Кэмпбелл Скотт, Джилл Флинт, Бен Шенкман, Генри Уинклер, Дитер Рисл, Ганс Тестер и др.

Описание

Хэнк Лоусон – молодой талантливый врач, у которого есть все атрибуты успеха: блестящая карьера, невеста-красавица. Но, обвиненный в совершении врачебной ошибки, Хэнк остается без работы и попадает в черный список всех медицинских учреждений Нью-Йорка. Невеста тут же испаряется, оставив ему стопку счетов на оплату несостоявшейся свадьбы. Брат уговаривает Хэнка поехать на курорт, отдохнуть и развеяться. Случайно молодой врач оказывается в нужном месте в нужное время и спасает жизнь фотомодели на закрытой вечеринке для избранных. С этого момента у Хэнка отбоя нет от богачей и знаменитостей, которые просят помочь разобраться с их проблемами. В жизни Хэнка начинается новый этап, но хочет ли он быть доктором по вызову? Сможет ли он себя найти в мире денег и власти?

Возраст: 16+ (зрителям, достигшим 16 лет)
Продолжительность: ~00: 42: 00 серия
Качество видео: WEB-DLRip
Перевод: Многоголосый закадровый, профессиональный -NewStudio
Автор перевода: Булат Карабасов
Видео: XviD, 720х400 (16: 9), ~1547 kb/s
Аудио Rus: MPEG Layer 3, 48, 0 kHz, 2 ch, 128 kb/s — многоголосый закадровый
Аудио Eng: MPEG Layer 3, 48, 0 kHz, 2 ch, 128 kb/s — оригинал Код:
Общее
Полное имя : D:Дорогой доктор (сезон любимого сериала 8) Royal Pains (2016) WEB-DLRip - NewStudioRoyal.Pains.S08E01.WEBD-LRip.Rus.Eng.DV.NewStudio.avi
Формат : AVI
Формат/Информация : Audio Video Interleave
Размер файла : 547 Мбайт
Продолжительность : 42 м.
Общий поток : 1817 Кбит/сек
Название фильма : Royal.Pains.S08E01.WEBD-LRip.Rus.Eng.DV.NewStudio/NNM-Club
Программа кодирования : VirtualDubModRus 1.5.10.2 (build 2542/release)
Библиотека кодирования : VirtualDubMod build 2542/release
Видео
Идентификатор : 0
Формат : MPEG-4 Visual
Профиль формата : Advanced [email protected]
Параметр BVOP формата : 2
Параметр QPel формата : Нет
Параметр GMC формата : Без точки перехода
Параметр матрицы формата : Default (MPEG)
Идентификатор кодека : XVID
Идентификатор кодека/Подсказка : XviD
Продолжительность : 42 м.
Битрейт : 1547 Кбит/сек
Ширина : 720 пикселей
Высота : 400 пикселей
Соотношение сторон : 16:9
Частота кадров : 23, 976 (23976/1000) кадра/сек
Цветовое пространство : YUV
Субдискретизация насыщенности : 4:2:0
Битовая глубина : 8 бит
Тип развёртки : Прогрессивная
Метод сжатия : С потерями
Бит/(Пиксели*Кадры) : 0.224
Размер потока : 466 Мбайт (85%)
Библиотека кодирования : XviD 73
Аудио #1
Идентификатор : 1
Формат : MPEG Audio
Версия формата : Version 1
Профиль формата : Layer 3
Режим : Joint stereo
Расширение режима : MS Stereo
Идентификатор кодека : 55
Идентификатор кодека/Подсказка : MP3
Продолжительность : 42 м.
Вид битрейта : Постоянный
Битрейт : 128 Кбит/сек
Каналы : 2 канала
Частота : 48, 0 КГц
Метод сжатия : С потерями
Размер потока : 38, 5 Мбайт (7%)
Выравнивание : Соединение по промежуткам
Продолжительность промежутка : 42 мс. (1, 00 видеокадр)
Время предзагрузки промежутка : 504 мс.
Аудио #2
Идентификатор : 2
Формат : MPEG Audio
Версия формата : Version 1
Профиль формата : Layer 3
Режим : Joint stereo
Расширение режима : MS Stereo
Идентификатор кодека : 55
Идентификатор кодека/Подсказка : MP3
Продолжительность : 42 м.
Вид битрейта : Постоянный
Битрейт : 128 Кбит/сек
Каналы : 2 канала
Частота : 48, 0 КГц
Метод сжатия : С потерями
Размер потока : 38, 5 Мбайт (7%)
Выравнивание : Соединение по промежуткам
Продолжительность промежутка : 42 мс. (1, 00 видеокадр)
Время предзагрузки промежутка : 504 мс.


Скриншоты для ознакомления




Онлайн видео Дорогой доктор

Другие торренты по теме:

  • Дорогой доктор / Пациент всегда прав / Royal Pains (2015) WEB-DLRip (сезон 7, серии 1 из ) NewStudio (обновляемая) скачать через торрент бесплатно

  • Посетители, находящиеся в группе Гости, не могут оставлять комментарии в данной новости.