Подписывайся на наш канал в Telegram https://t.me/torrentok и получи доступ к торрентам без ограничений!

Манхэттенская ночь / Manhattan Night / Manhattan Nocturne (2016) WEB-DLRip торрент скачать бесплатно

Манхэттенская ночь / Manhattan Night / Manhattan Nocturne (2016) WEB-DLRipПроизводство: США/DeCubellis Films, Untravelled Worlds, Fable House, Nocturne Pictures, Big Indie Pictures
Жанр: Триллер, Драма, Криминал, Детектив
Режиссер: Брайан ДеКьюбелис

Актеры
Ивонн Страховски, Эдриан Броуди, Дженнифер Билз, Кэмпбелл Скотт, Линда Лавин, Стивен Беркофф, Кевин Брезнахан, Уилл Бейнбринк, Фрэнк Дил, Наим Узиманн, ...

Описание

Когда соблазнительная незнакомка предлагает репортеру Портеру Рену провести расследование обстоятельств смерти ее мужа, он погружается в опасный мир сексуальной одержимости и заговоров, которые угрожают его браку, работе и жизни.

Рейтинг MPAA: R (лицам до 17 лет обязательно присутствие взрослого)
Премьера (мир): 20 мая 2016
Продолжительность: 01: 54: 03
Качество видео: WEB-DLRip
Перевод: Любительский многоголосый
Субтитры: Отсутствуют
Реклама: Присутствуют вставки голосовой и текстовой рекламы.
Видео: MPEG4, XviD, 720x304 (2.35: 1), 23.976 fps, 1 310 Kbps (0.250 bit/pixel)
Аудио: AC-3, 48.0 KHz, 2 ch, 384 Kbps, CBR Код: Формат : AVI
Формат/Информация : Audio Video Interleave
Размер файла : 1, 36 Гбайт
Продолжительность : 1 ч. 54 м.
Общий поток : 1704 Кбит/сек
Программа кодирования : VirtualDubMod 1.5.10.2 (build 2542/release)
Библиотека кодирования : VirtualDubMod build 2542/release
Видео
Идентификатор : 0
Формат : MPEG-4 Visual
Профиль формата : Advanced [email protected]
Параметр BVOP формата : 2
Параметр QPel формата : Нет
Параметр GMC формата : Без точки перехода
Параметр матрицы формата : Выборочная
Идентификатор кодека : XVID
Идентификатор кодека/Подсказка : XviD
Продолжительность : 1 ч. 54 м.
Битрейт : 1310 Кбит/сек
Ширина : 720 пикселей
Высота : 304 пикселя
Соотношение сторон : 2, 35:1
Частота кадров : 23, 976 кадра/сек
Цветовое пространство : YUV
Субдискретизация насыщенности : 4:2:0
Битовая глубина : 8 бит
Тип развёртки : Прогрессивная
Метод сжатия : С потерями
Бит/(Пиксели*Кадры) : 0.250
Размер потока : 1, 04 Гбайт (77%)
Библиотека кодирования : XviD 1.2.1 (UTC 2008-12-04)
Аудио
Идентификатор : 1
Формат : AC-3
Формат/Информация : Audio Coding 3
Расширение режима : CM (complete main)
Параметр Endianness формата : Big
Идентификатор кодека : 2000
Продолжительность : 1 ч. 54 м.
Вид битрейта : Постоянный
Битрейт : 384 Кбит/сек
Каналы : 2 канала
Расположение каналов : Front: L R
Частота : 48, 0 КГц
Битовая глубина : 16 бит
Метод сжатия : С потерями
Задержка видео : 4 мс.
Размер потока : 313 Мбайт (23%)
Выравнивание : Разделение по промежуткам
Продолжительность промежутка : 42 мс. (1, 00 видеокадр)
Время предзагрузки промежутка : 500 мс.


Скриншоты для ознакомления




Онлайн видео Манхэттенская ночь

Другие торренты по теме:

  • Манхэттенская ночь / Manhattan Night / Manhattan Nocturne (2016) WEB-DL [H.264 / 720p-LQ] [EN / EN Sub]
  • Манхэттенская ночь / Manhattan Night / Manhattan Nocturne (2016) WEB-DL [H.264 / 1080p-LQ]
  • Манхэттенская ночь / Manhattan Night / Manhattan Nocturne (2016) WEB-DLRip
  • Манхэттенская ночь / Manhattan Night / Manhattan Nocturne (2016) WEB-DL [H.264 / 720p-LQ]
  • Манхэттенская ночь / Manhattan Night / Manhattan Nocturne (2016) BDRip [H.264 / 1080p] [EN]
  • Манхэттенская ночь / Manhattan Night / Manhattan Nocturne (2016) BDRemux [H.264 / 1080p] [EN / EN, Sp Sub]
  • Манхэттенская ночь / Manhattan Night / Manhattan Nocturne (2016) BDRip [H.264 / 720p] [EN]
  • Манхэттенская ночь / Manhattan Night / Manhattan Nocturne (2016) BDRip [H.264 / 1080p]

  • Посетители, находящиеся в группе Гости, не могут оставлять комментарии в данной новости.