Подписывайся на наш канал в Telegram https://t.me/torrentok и получи доступ к торрентам без ограничений!

Штормагеддон / Stormageddon (2015) BDRip [H.264 / 1080p] торрент скачать бесплатно

Штормагеддон / Stormageddon (2015) BDRip [H.264 / 1080p]Производство: США
Жанр: Фантастика, боевик, триллер, драма
Режиссер: Ник Лион

Актеры
Джон Хенниган, Ив Мауро, Джозеф Гатт, Роберт Бланш, Рикко Росс, Дэвид Шатроу, Эдриан Пол, Дэвид Престон, Джон Мак, Роберт Крэйгхед

Описание
Страшно представить, что может произойти, если сложнейшая вычислительная система начнет управлять всеми процессами на земле. Такая система быстро проанализирует и сохранит множество данных, а после выйдет из-под контроля и сама получит полный контроль над жизнью людей. Однажды программа под названием Эшелон, управлявшая едва ли не всей жизнью США, дала сбой. Под угрозой оказалась безопасность всей страны. Проникнув в Управление перспективных оборонных исследований, программа Эшелон получила возможность манипулировать погодой и даже управлять землетрясениями...

Дата мировой премьеры: 18 ноября 2015
Продолжительность: 01: 25: 37
Качество видео: BDRip
Перевод: Профессиональный многоголосый (Официальный звук)
Субтитры: Немецкие (вшитые, отключаемые)
Видео: AVC, 1920x1080 (16: 9), 23.976 fps, 10.4 Mbps (0.209 bit/pixel)
Аудио #1: AC-3, 48.0 KHz, 2 ch, 192 Kbps, CBR (Russian)
Аудио #2: AC-3, 48.0 KHz, 6 ch, 640 Kbps, CBR (English) Код:
Формат : Matroska
Версия формата : Version 4/Version 2
Размер файла : 6, 84 Гбайт
Продолжительность : 1 ч. 25 м.
Общий поток : 11, 4 Мбит/сек
Название фильма : Stormageddon.2015.1080p.BluRay.DD5.1.x264-OmertaHD
Дата кодирования : UTC 2016-05-21 14:46:50
Программа кодирования : mkvmerge v9.0.1 (\'Obstacles\') 64bit
Библиотека кодирования : libebml v1.3.3 + libmatroska v1.4.4
DURATION : 01:25:36.320000000
NUMBER_OF_FRAMES : 160510
NUMBER_OF_BYTES : 123271680
_STATISTICS_WRITING_APP : mkvmerge v9.0.1 (\'Obstacles\') 64bit
_STATISTICS_WRITING_DATE_UTC : 2016-05-21 14:46:50
_STATISTICS_TAGS : BPS DURATION NUMBER_OF_FRAMES NUMBER_OF_BYTES
Видео
Идентификатор : 1
Формат : AVC
Формат/Информация : Advanced Video Codec
Профиль формата :[email protected]
Параметр CABAC формата : Да
Параметр ReFrames формата : 4 кадра
Идентификатор кодека : V_MPEG4/ISO/AVC
Продолжительность : 1 ч. 25 м.
Битрейт : 10, 4 Мбит/сек
Ширина : 1920 пикселей
Высота : 1080 пикселей
Соотношение сторон : 16:9
Режим частоты кадров : Постоянный
Частота кадров : 23, 976 кадра/сек
Цветовое пространство : YUV
Субдискретизация насыщенности : 4:2:0
Битовая глубина : 8 бит
Тип развёртки : Прогрессивная
Бит/(Пиксели*Кадры) : 0.209
Размер потока : 6, 21 Гбайт (91%)
Библиотека кодирования : x264 core 148 r2692kMod 64f4e24
Настройки программы : cabac=1/ref=4/deblock=1:-3:-3/analyse=0x3:0x133/me=umh/subme=10/psy=1/fade_compensate=0.00/psy_rd=0.80:0.00/mixed_ref=1/me_range=32/chroma_me=1/trellis=2/8x8dct=1/cqm=0/deadzone=21, 11/fast_pskip=1/chroma_qp_offset=-2/threads=6/lookahead_threads=1/sliced_threads=0/nr=0/decimate=1/interlaced=0/bluray_compat=0/constrained_intra=0/fgo=0/bframes=7/b_pyramid=2/b_adapt=2/b_bias=0/direct=3/weightb=1/open_gop=0/weightp=2/keyint=250/keyint_min=23/scenecut=40/intra_refresh=0/rc=crf/mbtree=0/crf=17.1000/qcomp=0.48/qpmin=0/qpmax=69/qpstep=4/ip_ratio=1.28/pb_ratio=1.20/aq=3:0.57/zones=4725, 5321, crf=14.5/5362, 5436, crf=14.5/5905, 6032, crf=14.5/6150, 6538, crf=14.5/6926, 7412, crf=14.5
Язык : English
Default : Да
Forced : Нет
DURATION : 01:25:37.132000000
NUMBER_OF_FRAMES : 123168
NUMBER_OF_BYTES : 6810692899
_STATISTICS_WRITING_APP : mkvmerge v9.0.1 (\'Obstacles\') 64bit
_STATISTICS_WRITING_DATE_UTC : 2016-05-21 14:46:50
_STATISTICS_TAGS : BPS DURATION NUMBER_OF_FRAMES NUMBER_OF_BYTES
Аудио #1
Идентификатор : 2
Формат : AC-3
Формат/Информация : Audio Coding 3
Расширение режима : CM (complete main)
Параметр Endianness формата : Big
Идентификатор кодека : A_AC3
Продолжительность : 1 ч. 25 м.
Вид битрейта : Постоянный
Битрейт : 192 Кбит/сек
Каналы : 2 канала
Расположение каналов : Front: L R
Частота : 48, 0 КГц
Битовая глубина : 16 бит
Метод сжатия : С потерями
Размер потока : 118 Мбайт (2%)
Язык : Russian
Default : Да
Forced : Да
Аудио #2
Идентификатор : 3
Формат : AC-3
Формат/Информация : Audio Coding 3
Расширение режима : CM (complete main)
Параметр Endianness формата : Big
Идентификатор кодека : A_AC3
Продолжительность : 1 ч. 25 м.
Вид битрейта : Постоянный
Битрейт : 640 Кбит/сек
Каналы : 6 каналов
Расположение каналов : Front: L C R, Side: L R, LFE
Частота : 48, 0 КГц
Битовая глубина : 16 бит
Метод сжатия : С потерями
Размер потока : 392 Мбайт (6%)
Язык : English
Default : Нет
Forced : Нет
Текст
Идентификатор : 4
Формат : UTF-8
Идентификатор кодека : S_TEXT/UTF8
Идентификатор кодека/Информация : UTF-8 Plain Text
Язык : German
Default : Да
Forced : Нет

Скриншоты для ознакомления



Все одноименные релизы в Клубе
Время раздачи: 24/7. До первых 5 скачавших.

Другие торренты по теме:

  • Штормагеддон / Stormageddon (2015) BDRip [H.264 / 720р-LQ]
  • Штормагеддон / Stormageddon (2015) HDRip
  • Штормагеддон / Stormageddon (2015) HDRip

  • Посетители, находящиеся в группе Гости, не могут оставлять комментарии в данной новости.