Подписывайся на наш канал в Telegram https://t.me/torrentok и получи доступ к торрентам без ограничений!

Сладкая жизнь (2016) DVBRip [H.264] (сезон 3, серии 1- из 7) (обновляемая) торрент скачать бесплатно

Сладкая жизнь (2016) DVBRip [H.264] (сезон 3, серии 1- из 7) (обновляемая)Производство: Россия/Good Story Media по заказу ТНТ
Жанр: драма
Режиссер: Давид Кочаров

Актеры
Марта Носова, Никита Панфилов, Лукерья Ильяшенко, Анастасия Меськова, Мария Шумакова, Роман Маякин, Антон Денисенко, Эдуард Мацаберидзе, Артур Бичахчян, Анатолий Горячев, Дарья Белоусова (II), Данила Дунаев, Нина Гусева, Ольга Медынич, Александр Робак, Анжелика Морозова, Алексей Варущенко, Ирина Темичева и др.

Описание

Два первых сезон любимого сериалаа Сладкой жизни показали, что происходит с людьми, которые живут так, как им хочется. В финале герои оказываются на самом дне и разными способами пытаются вернуться в зону комфорта, чтобы снова зажить сладкой жизнью. Но будет ли она такой, как раньше? Это каждому герою предстоит решить для себя самому.

Возраст: 16+ (зрителям, достигшим 16 лет)
Продолжительность: ~00: 43: 00 серия
Качество видео: DVBRip
Видео: AVC/H.264, 720x400 (16: 9), ~2000 Kbps
Аудио: AC3, 2 ch, 192 Kbps, CBR Код: Общее
Уникальный идентификатор : 215746313288015330400897867013176230564 (0xA24F3A7FF9C5EF6D9A28627ECD6902A4)
Полное имя : F:DOWNLOADSСладкая жизнь (3 сезон любимого сериала) (2016) DVBRip [H.264]Сладкая жизнь 3 - 01 серия.mkv
Формат : Matroska
Версия формата : Version 2
Размер файла : 672 Мбайт
Продолжительность : 42 м.
Общий поток : 2194 Кбит/сек
Дата кодирования : UTC 2016-05-23 19:10:59
Программа кодирования : mkvmerge v7.8.0 (\'River Man\') 32bit built on Apr 3 2015 12:11:22
Библиотека кодирования : libebml v1.3.1 + libmatroska v1.4.2
Видео
Идентификатор : 1
Формат : AVC
Формат/Информация : Advanced Video Codec
Профиль формата :[email protected]
Параметр CABAC формата : Да
Параметр ReFrames формата : 5 кадров
Идентификатор кодека : V_MPEG4/ISO/AVC
Продолжительность : 42 м.
Битрейт : 2000 Кбит/сек
Ширина : 720 пикселей
Высота : 400 пикселей
Соотношение сторон : 16:9
Режим частоты кадров : Постоянный
Частота кадров : 29, 970 (30000/1001) кадров/сек
Частота кадров в оригинале : 29, 970 (29970/1000) кадров/сек
Цветовое пространство : YUV
Субдискретизация насыщенности : 4:2:0
Битовая глубина : 8 бит
Тип развёртки : Прогрессивная
Бит/(Пиксели*Кадры) : 0.232
Размер потока : 600 Мбайт (89%)
Библиотека кодирования : x264 core 146 r2538 121396c
Настройки программы : cabac=1/ref=5/deblock=1:-1:-1/analyse=0x3:0x133/me=umh/subme=7/psy=1/psy_rd=1.00:0.00/mixed_ref=1/me_range=16/chroma_me=1/trellis=2/8x8dct=1/cqm=0/deadzone=21, 11/fast_pskip=0/chroma_qp_offset=-2/threads=6/lookahead_threads=1/sliced_threads=0/nr=0/decimate=1/interlaced=0/bluray_compat=0/constrained_intra=0/bframes=3/b_pyramid=2/b_adapt=2/b_bias=0/direct=3/weightb=1/open_gop=0/weightp=2/keyint=250/keyint_min=25/scenecut=40/intra_refresh=0/rc_lookahead=50/rc=2pass/mbtree=1/bitrate=2000/ratetol=1.0/qcomp=0.60/qpmin=0/qpmax=69/qpstep=4/cplxblur=20.0/qblur=0.5/ip_ratio=1.40/aq=1:1.00
Default : Да
Forced : Нет
Аудио
Идентификатор : 2
Формат : AC-3
Формат/Информация : Audio Coding 3
Расширение режима : CM (complete main)
Параметр Endianness формата : Big
Идентификатор кодека : A_AC3
Продолжительность : 42 м.
Вид битрейта : Постоянный
Битрейт : 192 Кбит/сек
Каналы : 2 канала
Расположение каналов : Front: L R
Частота : 48, 0 КГц
Частота кадров : 31, 250 кадров/сек (1536 spf)
Метод сжатия : С потерями
Размер потока : 58, 8 Мбайт (9%)
Default : Да
Forced : Нет

Скриншоты для ознакомления


Другие торренты по теме:

  • Сладкая жизнь (2015) SATRip (сезон 2, серии 1 из 8) (обновляемая) скачать через торрент бесплатно
  • Сладкая жизнь (2015) WEB-DLRip [H.264 / 720p-LQ] (сезон 2, серии 1- из 8) (обновляемая) скачать через торрент бесплатно
  • Сладкая жизнь (2015) WEB-DLRip (сезон 2, серии 1- из 8) (обновляемая) скачать через торрент бесплатно
  • Сладкая жизнь (2015) WEB-DLRip [H.264] (сезон 2, серии 1-3 из 8) (обновляемая) скачать через торрент бесплатно
  • Сладкая жизнь (2016) DVB [H.264] (сезон 3, серии 1- из 7) (обновляемая)
  • Сладкая жизнь (2016) SATRip (сезон 3, серии 1 из 7) (обновляемая)
  • Сладкая жизнь (2016) WEB-DLRip (сезон 3, серии 1- из 7) (обновляемая)
  • Сладкая жизнь (2016) WEB-DLRip [H.264 / 720p-LQ] (сезон 3, серии 1- из 7) (обновляемая)

  • Посетители, находящиеся в группе Гости, не могут оставлять комментарии в данной новости.