Подписывайся на наш канал в Telegram https://t.me/torrentok и получи доступ к торрентам без ограничений!

Сладкая жизнь (2016) SATRip (сезон 3, серии 1 из 7) (обновляемая) торрент скачать бесплатно

Сладкая жизнь (2016) SATRip (сезон 3, серии 1 из 7) (обновляемая)Производство: Россия/Good Story Media по заказу тнт
Жанр: драма, комедия
Режиссер: Андрей Джунковский

Актеры
Марта Носова, Никита Панфилов, Анастасия Меськова, Антон Денисенко, Мария Шумакова, Роман Маякин, Лукерья Ильяшенко, Анастасия Клюева, Николь Спиридонова, Павел Слепухов, Антон Батырев, Артур Бичахчян, Эдуард Мацаберидзе

Описание

В центре истории Сладкой жизни шестеро успешных тридцатилетних москвичей, чья жизнь меняется с появлением главной героини Саши — матери-одиночки из Перми, зарабатывающей на жизнь в ночном клубе танцами go-go. После неприятного инцидента на дне рождения местного мажора Саша отправляет ребенка к бабушке, а сама едет в гости к московской подруге Лере. Когда-то они вместе танцевали в кордебалете Большого театра. Прикольно все это наверно придумал Железный человек потратив достаточно времени. Шесть часовых серий Сладкой жизни укладываются всего в 8 дней. Но за это время жизнь каждого из героев сериала повернется на 180 градусов. И каждый из участников событий успеет показать себя с самой неожиданной стороны: в диапазоне от абсолютного свинства до настоящего благородства.

Возраст: 16+ (зрителям, достигшим 16 лет)
Продолжительность: ~ 00: 42: 00 серия
Качество видео: SATRip
Видео: XviD, 720x400 (16: 9), ~1541 kb/s
Аудио: AC3, 48 kHz, 2 ch, 192 kbps Код: Общее
Полное имя : D:РелизыСладкая жизнь (2016) SATRip_NNMClub.ro1.серия.avi
Формат : AVI
Формат/Информация : Audio Video Interleave
Размер файла : 535 Мбайт
Продолжительность : 42 м.
Общий поток : 1742 Кбит/сек
Программа кодирования : VirtualDubModRus 1.5.10.2 (build 2542/release)
Библиотека кодирования : VirtualDubMod build 2542/release
Видео
Идентификатор : 0
Формат : MPEG-4 Visual
Профиль формата : Advanced [email protected]
Параметр BVOP формата : 1
Параметр QPel формата : Нет
Параметр GMC формата : Без точки перехода
Параметр матрицы формата : Выборочная
Идентификатор кодека : XVID
Идентификатор кодека/Подсказка : XviD
Продолжительность : 42 м.
Битрейт : 1541 Кбит/сек
Ширина : 720 пикселей
Высота : 400 пикселей
Соотношение сторон : 16:9
Частота кадров : 25, 000 кадров/сек
Цветовое пространство : YUV
Субдискретизация насыщенности : 4:2:0
Битовая глубина : 8 бит
Тип развёртки : Прогрессивная
Метод сжатия : С потерями
Бит/(Пиксели*Кадры) : 0.214
Размер потока : 473 Мбайт (88%)
Библиотека кодирования : XviD 73
Аудио
Идентификатор : 1
Формат : AC-3
Формат/Информация : Audio Coding 3
Расширение режима : CM (complete main)
Параметр Endianness формата : Big
Идентификатор кодека : 2000
Продолжительность : 42 м.
Вид битрейта : Постоянный
Битрейт : 192 Кбит/сек
Каналы : 2 канала
Расположение каналов : Front: L R
Частота : 48, 0 КГц
Метод сжатия : С потерями
Размер потока : 59, 0 Мбайт (11%)
Выравнивание : Разделение по промежуткам
Продолжительность промежутка : 40 мс. (1, 00 видеокадр)
Время предзагрузки промежутка : 500 мс.

Скриншоты для ознакомления


Другие торренты по теме:

  • Сладкая жизнь (2015) SATRip (сезон 2, серии 1 из 8) (обновляемая) скачать через торрент бесплатно
  • Сладкая жизнь (2015) WEB-DLRip [H.264 / 720p-LQ] (сезон 2, серии 1- из 8) (обновляемая) скачать через торрент бесплатно
  • Сладкая жизнь (2015) WEB-DLRip (сезон 2, серии 1- из 8) (обновляемая) скачать через торрент бесплатно
  • Сладкая жизнь (2015) WEB-DLRip [H.264] (сезон 2, серии 1-3 из 8) (обновляемая) скачать через торрент бесплатно
  • Сладкая жизнь (2016) DVB [H.264] (сезон 3, серии 1- из 7) (обновляемая)
  • Сладкая жизнь (2016) DVBRip [H.264] (сезон 3, серии 1- из 7) (обновляемая)
  • Сладкая жизнь (2016) WEB-DLRip (сезон 3, серии 1- из 7) (обновляемая)
  • Сладкая жизнь (2016) WEB-DLRip [H.264 / 720p-LQ] (сезон 3, серии 1- из 7) (обновляемая)

  • Посетители, находящиеся в группе Гости, не могут оставлять комментарии в данной новости.