Подписывайся на наш канал в Telegram https://t.me/torrentok и получи доступ к торрентам без ограничений!

Изгой / Outcast (2016) WEBRip (сезон 1, серии 1 из 10) OMSKBIRD (обновляемая) торрент скачать бесплатно

Изгой / Outcast (2016) WEBRip (сезон 1, серии 1 из 10) OMSKBIRD (обновляемая)Производство: США, Fox International Channels, Cinemax
Жанр: ужасы, драма
Режиссер: Ли Джаньяк, Лони Перистер, Адам Вингард

Актеры
Ренн Шмидт, Патрик Фьюджит, Филип Гленистер, Дэвид Денман, Рег Э. Блошиный рынок, сказал кто то из толпы, к чему не понятно. Кэти, Калли Брук МакКлинси, Пит Буррис, Мелинда МакГроу, Мадлен МакГроу и др.

Описание

Сериал рассказывает о молодом человеке, который пытается понять, почему всю его жизнь с ним происходят различные сверхъестественные вещи.

Продолжительность: ~ 00: 55: 00 серия
Качество видео: WEBRip
Перевод: Многоголосый закадровый, профессиональный | OMSKBIRD
Реклама: присутствуют аудио вставки рекламы.
Видео: Xvid, 720x400, ~1966 kbps
Аудио # 1 Rus: AC-3, 2 ch, 192 kbps, CBR - многоголосый закадровый
Аудио # 2 Eng: AC-3, 2 ch, 192 kbps, CBR - оригинал Код:
General
Complete name : F:Мои ДокументыВидеоРАЗДАЧИИзгойOutcast s01 WEBRip(OMSKBIRD)Outcast s01e01 WEBRip (OMSKBIRD).avi
Format : AVI
Format/Info : Audio Video Interleave
File size : 928 MiB
Duration : 54mn 52s
Overall bit rate : 2 364 Kbps
Writing application : VirtualDubMod 1.5.10.3 |www.virtualdub-fr.org|| (build 2550/release)
Writing library : VirtualDubMod build 2550/release
Video
ID : 0
Format : MPEG-4 Visual
Format profile : Advanced [email protected]
Format settings, BVOP : 1
Format settings, QPel : No
Format settings, GMC : No warppoints
Format settings, Matrix : Default (MPEG)
Codec ID : XVID
Codec ID/Hint : XviD
Duration : 54mn 52s
Bit rate : 1 966 Kbps
Width : 720 pixels
Height : 400 pixels
Display aspect ratio : 16:9
Frame rate : 23.976 fps
Color space : YUV
Chroma subsampling : 4:2:0
Bit depth : 8 bits
Scan type : Progressive
Compression mode : Lossy
Bits/(Pixel*Frame) : 0.285
Stream size : 772 MiB (83%)
Writing library : XviD 1.2.1 (UTC 2008-12-04)
Audio #1
ID : 1
Format : AC-3
Format/Info : Audio Coding 3
Mode extension : CM (complete main)
Format settings, Endianness : Big
Codec ID : 2000
Duration : 54mn 52s
Bit rate mode : Constant
Bit rate : 192 Kbps
Channel(s) : 2 channels
Channel positions : Front: L R
Sampling rate : 48.0 KHz
Bit depth : 16 bits
Compression mode : Lossy
Stream size : 75.4 MiB (8%)
Alignment : Split accross interleaves
Interleave, duration : 42 ms (1.00 video frame)
Interleave, preload duration : 500 ms
Audio #2
ID : 2
Format : AC-3
Format/Info : Audio Coding 3
Mode extension : CM (complete main)
Format settings, Endianness : Big
Codec ID : 2000
Duration : 54mn 52s
Bit rate mode : Constant
Bit rate : 192 Kbps
Channel(s) : 2 channels
Channel positions : Front: L R
Sampling rate : 48.0 KHz
Bit depth : 16 bits
Compression mode : Lossy
Stream size : 75.4 MiB (8%)
Alignment : Split accross interleaves
Interleave, duration : 42 ms (1.00 video frame)
Interleave, preload duration : 500 ms


Скриншоты для ознакомления




Онлайн видео Изгой

Другие торренты по теме:

  • Изгой / Outcast (2016) WEBRip [H.264 / 720p-LQ] (сезон 1, серии 1 из 10) OMSKBIRD (обновляемая)
  • Изгой / Outcast (2016) HDTVRip (сезон 1, серии 1 из 10) NewStudio (обновляемая)
  • Изгой / Outcast (2016) HDTV [H.264 / 720p-LQ] (сезон 1, серия 1 из 10) (AlexFilm) (обновляемая)
  • Изгой / Outcast (2016) WEBRip [H.264 / 720p-LQ] (сезон 1, серии 1 из 10) BaibaKo (обновляемая)
  • Изгой / Outcast (2016) HDTVRip (сезон 1, серии 1 из 10) AlexFilm (обновляемая)
  • Изгой / Outcast (2016) HDTVRip [H.264 / 720p-LQ] (сезон 1, серии 1 из 10) NewStudio (обновляемая)
  • Изгой / Outcast (2016) HDTVRip (сезон 1, серии 1 из 10) LostFilm (обновляемая)
  • Изгой / Outcast (2016) HDTVRip [H.264 / 720p-LQ] (сезон 1, серии 1-1 из 10) LostFilm (обновляемая)

  • Посетители, находящиеся в группе Гости, не могут оставлять комментарии в данной новости.