Подписывайся на наш канал в Telegram https://t.me/torrentok и получи доступ к торрентам без ограничений!

13 часов: Тайные солдаты Бенгази / 13 Hours: The Secret Soldiers of Benghazi (2016) WEB-DL [H.264 / 720p-LQ] [EN / EN Sub] торрент скачать бесплатно

13 часов: Тайные солдаты Бенгази / 13 Hours: The Secret Soldiers of Benghazi (2016) WEB-DL [H.264 / 720p-LQ] [EN / EN Sub]Производство: США, 3 Arts Entertainment, Dune Films, Latina Pictures, Paramount Pictures
Жанр: Боевик, триллер, драма, военный
Режиссер: Майкл Бэй

Актеры
Джон Красински, Джеймс Бэдж Дэйл, Пабло Шрайбер, Дэвид Денман, Доминик Фумуса, Макс Мартини, Алексия Бальер, Дэвид Костабайл, Пейман Моаади, Мэтт Летчер

Описание

2012 год. Бенгази, Ливия. Группа террористов решает отпраздновать события 11 сентября нападением на американское посольство. Шестерке бойцов из элитного спецотряда приказано вмешаться только в крайнем случае. Но когда под угрозой десятки жизней, долг и совесть берут верх над субординацией. И мужественные солдаты без колебаний вступают в бой с яростной группировкой боевиков. Бой, который для всех шестерых, скорее всего, станет последним.

Возраст: 18+ (зрителям, достигшим 18 лет. Самое интересное в это истории, что об этом Гендельф ничего не знал. запрещено для детей)
Рейтинг MPAA: R (лицам до 17 лет обязательно присутствие взрослого)
Дата мировой премьеры: 12 января 2016
Дата премьеры в РФ: 28 января 2016, Централ Партнершип
Бюджет: $50 000 000

Продолжительность: 02: 24: 49
Качество видео: WEB-DL 720p PLAYNOW
Перевод: Отсутствует
Язык озвучки: Английский
Язык субтитров: Английский
Вид субтитров: Вшитые отключаемые
Видео: AVC, 1280x528 (2.40: 1), 23.976 fps, 3 857 Kbps (0.238 bit/pixel)
Аудио: AC-3, 48.0 KHz, 6 ch, 384 Kbps, CBR (English) Код:
General
Unique ID : 216864808408104389268613186059558624535 (0xA326A4912472C67580F6CF6C9B069D17)
Complete name : E:Video13.Hours.The.Secret.Soldiers.of.Benghazi.2016.720p.WEB-DL.DD5.1.H.264-PLAYNOW.mkv
Format : Matroska
Format version : Version 4/Version 2
File size : 4.38 GiB
Duration : 2h 24mn
Overall bit rate : 4 327 Kbps
Movie name : Encoded msdHDA
Encoded date : UTC 2016-05-24 04:38:42
Writing application : mkvmerge v6.7.0 (\'Back to the Ground\') 64bit built on Jan 8 2014 15:10:52
Writing library : libebml v1.3.0 + libmatroska v1.4.1
Video
ID : 1
Format : AVC
Format/Info : Advanced Video Codec
Format profile :[email protected]
Format settings, CABAC : No
Format settings, ReFrames : 2 frames
Codec ID : V_MPEG4/ISO/AVC
Duration : 2h 24mn
Bit rate : 3 857 Kbps
Width : 1 280 pixels
Height : 528 pixels
Display aspect ratio : 2.40:1
Frame rate mode : Constant
Frame rate : 23.976 fps
Color space : YUV
Chroma subsampling : 4:2:0
Bit depth : 8 bits
Scan type : Progressive
Bits/(Pixel*Frame) : 0.238
Stream size : 3.90 GiB (89%)
Language : English
Default : Yes
Forced : No
Color range : Limited
Color primaries : BT.709
Transfer characteristics : BT.709
Matrix coefficients : BT.709
Audio
ID : 2
Format : AC-3
Format/Info : Audio Coding 3
Mode extension : CM (complete main)
Format settings, Endianness : Big
Codec ID : A_AC3
Duration : 2h 24mn
Bit rate mode : Constant
Bit rate : 384 Kbps
Channel(s) : 6 channels
Channel positions : Front: L C R, Side: L R, LFE
Sampling rate : 48.0 KHz
Frame rate : 31.250 fps (1536 spf)
Compression mode : Lossy
Stream size : 398 MiB (9%)
Language : English
Default : Yes
Forced : No
Text
ID : 3
Format : UTF-8
Codec ID : S_TEXT/UTF8
Codec ID/Info : UTF-8 Plain Text
Language : English
Default : No
Forced : No
Menu
00:00:00.000 : en:1
00:04:47.000 : en:2
00:09:01.000 : en:3
00:15:31.000 : en:4
00:21:12.000 : en:5
00:26:48.000 : en:6
00:31:22.000 : en:7
00:34:20.000 : en:8
00:39:36.000 : en:9
00:47:13.000 : en:10
00:53:59.000 : en:11
01:02:27.000 : en:12
01:10:03.000 : en:13
01:23:02.000 : en:14
01:27:11.000 : en:15
01:34:50.000 : en:16
01:42:36.000 : en:17
01:48:08.000 : en:18
01:53:47.000 : en:19
02:00:23.000 : en:20
02:07:19.000 : en:21
02:18:25.000 : en:22


Скриншоты для ознакомления




Онлайн видео 13 часов: Тайные солдаты Бенгази

Другие торренты по теме:

  • 13 часов: Тайные солдаты Бенгази / 13 Hours: The Secret Soldiers of Benghaz (2016) CamRip
  • 13 часов: Тайные солдаты Бенгази / 13 Hours: The Secret Soldiers of Benghazi (2016) CamRip
  • 13 часов: Тайные солдаты Бенгази / 13 Hours: The Secret Soldiers of Benghazi (2016) BDRip [H.264 / 1080p] [EN / EN Sub]
  • 13 часов: Тайные солдаты Бенгази / 13 Hours: The Secret Soldiers of Benghazi (2016) BDRip [H.264 / 720p] [EN]
  • 13 часов: Тайные солдаты Бенгази / 13 Hours: The Secret Soldiers of Benghazi (2016) BDRip [H.264 / 1080p] [Line]
  • 13 часов: Тайные солдаты Бенгази / 13 Hours: The Secret Soldiers of Benghazi (2016) BDRemux [H.264 / 1080p] [EN / EN, Fr, Sp, Po Sub]
  • 13 часов: Тайные солдаты Бенгази / 13 Hours: The Secret Soldiers of Benghazi (2016) AC3 5.1 [hand made]
  • 13 часов: Тайные солдаты Бенгази / 13 Hours: The Secret Soldiers of Benghazi (2016) BDRip [Line]

  • Посетители, находящиеся в группе Гости, не могут оставлять комментарии в данной новости.