Подписывайся на наш канал в Telegram https://t.me/torrentok и получи доступ к торрентам без ограничений!

Джейн берет ружье / Jane Got a Gun (2016) DVD9 торрент скачать бесплатно

Джейн берет ружье / Jane Got a Gun (2016) DVD9Производство: США/Boies/Schiller Film Group, Handsomecharlie Films, 1821 Pictures, Stone Village Productions, Exclusive Media
Жанр: Боевик, драма, вестерн
Режиссер: Гэвин О’Коннор
Продюсеры: Терри Дугас, Алин Кешишьян, Скотт ЛаСтайти

Актеры
Натали Портман, Джоэл Эдгертон, Юэн МакГрегор, Ноа Эммерик, Бойд Холбрук, Родриго Санторо, Джеймс Барнетт, Сэм Куинн, Мэйси МакМастер, Дженни Гэбриэлль

Описание

Головорезы МакКэна преследуют попытавшегося отбиться от банды Хэма. Изрешеченный пулями, он укрывается на ранчо своей красавицы-жены Джейн. Ей приходится обратиться за защитой к тому, кого она хотела бы видеть меньше всего, — к своему бывшему любовнику. Джейн нужно забыть прошлое, совладать с чувствами и стать сильной и бескомпромиссной, чтобы спасти семью от расправы банды наемников.

Возраст: 18+ (зрителям, достигшим 18 лет. запрещено для детей)
Рейтинг MPAA: R (лицам до 17 лет обязательно присутствие взрослого)
Дата мировой премьеры: 1 января 2016
Дата российской премьеры: 17 марта 2016, Экспонента
Дата выхода DVD релиза: 25 апреля 2016, Новый Диск

Продолжительность: 01: 34: 03
Качество видео: DVD9 R5
Перевод: Дублированный (лицензия)
Субтитры: Вшитые отключаемые
Язык субтитров: Украинский
Доп. материалы: Фотогалерея, Анонсы
Видео: MPEG-2, [email protected] (PAL 16: 9), ~6600 Kbps
Аудио: AC3 5.1, 448 Kbps Код: Title: Jane Got a Gun (2016) DVD9 R5
Size: 5.21 Gb ( 5 463 292, 00 KBytes ) - DVD-9
Enabled regions: 1, 2, 3, 4, 5, 6, 7, 8
VTS_01 :
Play Length: 00:00:15
Video: PAL 4:3 (720x576) VBR
Audio:
English (Dolby AC3, 2 ch)
VTS_02 :
Play Length: 00:00:07
Video: PAL 16:9 (720x576) VBR, Auto Letterboxed
Audio:
English (Dolby AC3, 2 ch)
VTS_03 :
Play Length: 01:34:03
Video: PAL 16:9 (720x576) VBR, Auto Letterboxed
Audio:
Russian (Dolby AC3, 6 ch)
Subtitles:
Ukrainian
VTS_04 :
Play Length: 00:01:57
Video: PAL 16:9 (720x576) VBR, Auto Letterboxed
Audio:
English (Dolby AC3, 2 ch)
VTS_05 :
Play Length: 00:01:27
Video: PAL 16:9 (720x576) VBR, Auto Letterboxed
Audio:
English (Dolby AC3, 2 ch)
VTS_06 :
Play Length: 00:01:37
Video: PAL 16:9 (720x576) VBR, Auto Letterboxed
Audio:
English (Dolby AC3, 2 ch)
VTS_07 :
Play Length: 00:01:38
Video: PAL 16:9 (720x576) VBR, Auto Letterboxed
Audio:
English (Dolby AC3, 2 ch)
VTS_08 :
Play Length: 00:02:10
Video: PAL 16:9 (720x576) VBR, Auto Letterboxed
Audio:
English (Dolby AC3, 2 ch)
VTS_09 :
Play Length: 00:02:24
Video: PAL 16:9 (720x576) VBR, Auto Letterboxed
Audio:
English (Dolby AC3, 2 ch)
VTS_10 :
Play Length: 00:01:26
Video: PAL 16:9 (720x576) VBR, Auto Letterboxed
Audio:
English (Dolby AC3, 2 ch)
* Menus Information *
VIDEO_TS Menu
Video:
PAL 4:3 (720x576) VBR
English Language Unit :
Title Menu
VTS_01 Menu
Video:
PAL 16:9 (720x576) VBR
Auto Letterboxed
Audio:
Not specified (Dolby AC3, 2 ch)
English Language Unit :
Root Menu
VTS_02 Menu
Video:
PAL 4:3 (720x576) VBR
English Language Unit :
Root Menu
VTS_03 Menu
Video:
PAL 4:3 (720x576) VBR
English Language Unit :
Root Menu
VTS_04 Menu
Video:
PAL 4:3 (720x576) VBR
English Language Unit :
Root Menu
VTS_05 Menu
Video:
PAL 4:3 (720x576) VBR
English Language Unit :
Root Menu
VTS_06 Menu
Video:
PAL 4:3 (720x576) VBR
English Language Unit :
Root Menu
VTS_07 Menu
Video:
PAL 4:3 (720x576) VBR
English Language Unit :
Root Menu
VTS_08 Menu
Video:
PAL 4:3 (720x576) VBR
English Language Unit :
Root Menu
VTS_09 Menu
Video:
PAL 4:3 (720x576) VBR
English Language Unit :
Root Menu
VTS_10 Menu
Video:
PAL 4:3 (720x576) VBR
English Language Unit :
Root Menu Код: Общее
Полное имя : F:ВидеоJane Got a Gun (2016) DVD9 R5VIDEO_TSVTS_03_2.VOB
Формат : MPEG-PS
Размер файла : 1024 Мбайт
Продолжительность : 19 м.
Режим общего битрейта : Переменный
Общий поток : 7222 Кбит/сек
Видео
Идентификатор : 224 (0xE0)
Формат : MPEG Video
Версия формата : Version 2
Профиль формата : [email protected]
Параметр BVOP формата : Да
Параметр матрицы формата : По умолчанию
Параметр GOP формата : M=3, N=12
Продолжительность : 19 м.
Вид битрейта : Переменный
Битрейт : 6630 Кбит/сек
Максимальный битрейт : 8500 Кбит/сек
Ширина : 720 пикселей
Высота : 576 пикселей
Соотношение сторон : 16:9
Частота кадров : 25, 000 кадров/сек
Стандарт вещания : PAL
Цветовое пространство : YUV
Субдискретизация насыщенности : 4:2:0
Битовая глубина : 8 бит
Тип развёртки : Прогрессивная
Метод сжатия : С потерями
Бит/(Пиксели*Кадры) : 0.639
Временной код первого кадра : 00:20:55:18
Оригинал временного кода : Group of pictures t_head
GOP, открыто/закрыто : Открыто
Размер потока : 940 Мбайт (92%)
Аудио
Идентификатор : 189 (0xBD)-128 (0x80)
Формат : AC-3
Формат/Информация : Audio Coding 3
Расширение режима : CM (complete main)
Параметр Endianness формата : Big
Режим смешивания : DVD-Video
Продолжительность : 19 м.
Вид битрейта : Постоянный
Битрейт : 448 Кбит/сек
Каналы : 6 каналов
Расположение каналов : Front: L C R, Side: L R, LFE
Частота : 48, 0 КГц
Частота кадров : 31, 250 кадров/сек (1536 spf)
Метод сжатия : С потерями
Задержка видео : -344 мс.
Размер потока : 63, 5 Мбайт (6%)
Текст #1
Идентификатор : 189 (0xBD)-33 (0x21)
Формат : RLE
Формат/Информация : Run-length encoding
Режим смешивания : DVD-Video
Продолжительность : 19 м.
Задержка видео : 2 с. 20 мс.
Текст #2
Идентификатор : 189 (0xBD)-34 (0x22)
Формат : RLE
Формат/Информация : Run-length encoding
Режим смешивания : DVD-Video
Продолжительность : 19 м.
Задержка видео : 2 с. 20 мс.
Меню


Скриншоты для ознакомления




Онлайн видео Джейн берет ружье

Другие торренты по теме:

  • Джейн берет ружье / Jane Got a Gun (2015) WEBRip [H.264 / 720p-LQ]
  • Джейн берет ружье / Jane Got a Gun (2015) WEBRip
  • Джейн берет ружье / Jane Got a Gun (2015) HDRip
  • Джейн берет ружье / Jane Got a Gun (2015) BDRip [H.264 / 1080p]
  • Джейн берет ружье / Jane Got a Gun (2016) BDRemux [H.264 / 1080p] [EN / EN, Sp Sub]
  • Джейн берет ружье / Jane Got a Gun (2016) BDRip [H.264]
  • Джейн берет ружье / Jane Got a Gun (2016) BDRip [H.264]
  • Джейн берет ружье / Jane Got a Gun (2016) HDRip [Line]

  • Посетители, находящиеся в группе Гости, не могут оставлять комментарии в данной новости.