Подписывайся на наш канал в Telegram https://t.me/torrentok и получи доступ к торрентам без ограничений!

Реальные пацаны (2016) WEB-DLRip [H.264 / 720p-LQ] (сезон 9, серии 1-2 из 16) (обновляемая) торрент скачать бесплатно

Реальные пацаны (2016) WEB-DLRip [H.264 / 720p-LQ] (сезон 9, серии 1-2 из 16) (обновляемая)Производство: Россия/Good Story Media по заказу ТНТ
Жанр: комедия
Режиссер: Жанна Кадникова

Актеры
Николай Наумов, Зоя Бербер, Антон Богданов, Владимир Селиванов, Станислав Тляшев, Мария Скорницкая, Валентина Мазунина, Марина Федункив, Армен Бежанян, Игорь Ознобихин, Алексей Базанов, Анастасия Плоскова, Сергей Ершов, Татьяна Ронзина, Любовь Рудометова, Юлия Гришнина, Михаил Чуднов, Юрий Богомолов, Василий Бичев и др.

Описание

16 мая 2016 года навсегда войдет в историю телевидения. В этот день совместный эксперимент телеканала ТНТ и правоохранительных органов Пермского края успешно завершен: с Николая Наумова снимают условный срок и впервые за последние шесть лет он оказывается в условиях настоящей свободы. Камера выключена и больше не преследует Коляна по пятам. Ему больше не нужно регулярно отмечаться в полицейском участке, беспокоиться за свою репутацию перед телезрителями ТНТ, жить с оглядкой на условный срок и камеру. Теперь-то дела точно пойдут в гору. Свобода Николая Наумова также принесла свободу всем остальным героям Реальных пацанов, которым больше не нужно сдерживать эмоции, включать самоцензуру и скрывать свое истинное лицо от вездесущей камеры. Камера, стоп! На этом история простого пермского пацана Коляна Наумова заканчивается, и начинается новая — история взрослого, ответственного, уверенного в себе человека, кандидата в депутаты Николая Александровича Наумова. И это не шутка. Камера, мотор! В новом сезон любимого сериалае Реальных пацанов бывший гопник Колян, благодаря финансовой помощи Сергея Ивановича Оборина, моральной поддержке Вована, Антохи и Леры, а также силами пиарщицы Олеси Геннадьевны будет строить политическую карьеру.

Возраст: 16+ (зрителям, достигшим 16 лет)
Продолжительность: ~00: 25: 00 серия
Качество видео: WEB-DLRip
Видео: AVC/H.264, 1280x720 (16: 9), ~3500 Kbps
Аудио: AC3, 2 ch, 192 Kbps, CBR Код: Общее
Уникальный идентификатор : 174788560254143580239374115759648820023 (0x837F0D5DD46C45F7A0A7E391E69A4B37)
Полное имя : E:DOWNLOADSРеальные пацаны (9 сезон любимого сериала) 2016 WEB-DLRip 720Реальные пацаны 9 - 01 серия.mkv
Формат : Matroska
Версия формата : Version 2
Размер файла : 632 Мбайт
Продолжительность : 23 м.
Общий поток : 3752 Кбит/сек
Дата кодирования : UTC 2016-05-24 17:44:21
Программа кодирования : mkvmerge v7.8.0 (\'River Man\') 32bit built on Apr 3 2015 12:11:22
Библиотека кодирования : libebml v1.3.1 + libmatroska v1.4.2
Видео
Идентификатор : 1
Формат : AVC
Формат/Информация : Advanced Video Codec
Профиль формата :[email protected]
Параметр CABAC формата : Да
Параметр ReFrames формата : 1 кадр
Параметр GOP формата : M=1, N=12
Идентификатор кодека : V_MPEG4/ISO/AVC
Продолжительность : 23 м.
Битрейт : 3485 Кбит/сек
Ширина : 1280 пикселей
Высота : 720 пикселей
Соотношение сторон : 16:9
Режим частоты кадров : Постоянный
Частота кадров : 25, 000 кадров/сек
Стандарт вещания : Component
Цветовое пространство : YUV
Субдискретизация насыщенности : 4:2:0
Битовая глубина : 8 бит
Тип развёртки : Прогрессивная
Бит/(Пиксели*Кадры) : 0.151
Размер потока : 587 Мбайт (93%)
Default : Да
Forced : Нет
Цветовой диапазон : Limited
Аудио
Идентификатор : 2
Формат : AC-3
Формат/Информация : Audio Coding 3
Расширение режима : CM (complete main)
Параметр Endianness формата : Big
Идентификатор кодека : A_AC3
Продолжительность : 23 м.
Вид битрейта : Постоянный
Битрейт : 192 Кбит/сек
Каналы : 2 канала
Расположение каналов : Front: L R
Частота : 48, 0 КГц
Частота кадров : 31, 250 кадров/сек (1536 spf)
Метод сжатия : С потерями
Размер потока : 32, 3 Мбайт (5%)
Default : Да
Forced : Нет

Скриншоты для ознакомления




Онлайн видео Реальные пацаны (2016) WEB-DLRip [H.264

Другие торренты по теме:

  • Реальные пацаны. Возвращение (2014) WEB-DLRip [H.264] (серии 1-16) (обновляемая)
  • Реальные пацаны. Возвращение (2014) WEB-DL [720p] (серии 1-16) (обновляемая)
  • Реальные пацаны. Возвращение (2014) WEB-DLRip (Серии 1-16) (Обновляемая)
  • Реальные пацаны. Возвращение (2014) SATRip (Серии 1-16) (Обновляемая)
  • Реальные пацаны. Возвращение (2014) WEB-DLRip [H.264 / 720p-LQ] (сезон 7, серии 1-16 из (123-138 из )) [обновляемая]
  • Реальные пацаны (2015) WEB-DLRip [H.264 / 720p-LQ] (сезон 8, серии 1-2 из 20) (обновляемая) скачать через торрент бесплатно
  • Реальные пацаны (2015) WEB-DLRip (сезон 8, серии 1-2 из 20) (обновляемая) скачать через торрент бесплатно
  • Реальные пацаны (2015) SATRip (сезон 8, серии 1-2 из 20) (обновляемая) скачать через торрент бесплатно

  • Посетители, находящиеся в группе Гости, не могут оставлять комментарии в данной новости.