Подписывайся на наш канал в Telegram https://t.me/torrentok и получи доступ к торрентам без ограничений!

Сладкая жизнь (2016) WEB-DLRip (сезон 3, серии 1- из 7) (обновляемая) торрент скачать бесплатно

Сладкая жизнь (2016) WEB-DLRip (сезон 3, серии 1- из 7) (обновляемая)Производство: Россия/Good Story Media по заказу ТНТ
Жанр: драма
Режиссер: Давид Кочаров

Актеры
Марта Носова, Никита Панфилов, Лукерья Ильяшенко, Анастасия Меськова, Мария Шумакова, Роман Маякин, Антон Денисенко, Эдуард Мацаберидзе, Артур Бичахчян, Анатолий Горячев, Дарья Белоусова (II), Данила Дунаев, Нина Гусева, Ольга Медынич, Александр Робак, Анжелика Морозова, Алексей Варущенко, Ирина Темичева и др.

Описание

Два первых сезон любимого сериалаа Сладкой жизни показали, что происходит с людьми, которые живут так, как им хочется. В финале герои оказываются на самом дне и разными способами пытаются вернуться в зону комфорта, чтобы снова зажить сладкой жизнью. Но будет ли она такой, как раньше? Это каждому герою предстоит решить для себя самому.

Возраст: 16+ (зрителям, достигшим 16 лет)
Продолжительность: ~00: 43: 00 серия
Качество видео: WEB-DLRip
Видео: XVID, 720x400 (16: 9), ~1800 Kbps
Аудио: AC3, 2 ch, 192 Kbps, CBR Код: Общее
Полное имя : F:DOWNLOADSСладкая жизнь (3 сезон любимого сериала) (2016) WEB-DLRipСладкая жизнь 3 - 01 серия.avi
Формат : AVI
Формат/Информация : Audio Video Interleave
Размер файла : 620 Мбайт
Продолжительность : 43 м.
Общий поток : 2001 Кбит/сек
Программа кодирования : VirtualDubMod 1.5.10.3 | (build 2550/release)
Библиотека кодирования : VirtualDubMod build 2550/release
Видео
Идентификатор : 0
Формат : MPEG-4 Visual
Профиль формата : Advanced [email protected]
Параметр BVOP формата : 1
Параметр QPel формата : Нет
Параметр GMC формата : Без точки перехода
Параметр матрицы формата : Default (MPEG)
Идентификатор кодека : XVID
Идентификатор кодека/Подсказка : XviD
Продолжительность : 43 м.
Битрейт : 1799 Кбит/сек
Ширина : 720 пикселей
Высота : 400 пикселей
Соотношение сторон : 16:9
Частота кадров : 25, 000 кадров/сек
Цветовое пространство : YUV
Субдискретизация насыщенности : 4:2:0
Битовая глубина : 8 бит
Тип развёртки : Прогрессивная
Метод сжатия : С потерями
Бит/(Пиксели*Кадры) : 0.250
Размер потока : 558 Мбайт (90%)
Библиотека кодирования : XviD 73
Аудио
Идентификатор : 1
Формат : AC-3
Формат/Информация : Audio Coding 3
Расширение режима : CM (complete main)
Параметр Endianness формата : Big
Идентификатор кодека : 2000
Продолжительность : 43 м.
Вид битрейта : Постоянный
Битрейт : 192 Кбит/сек
Каналы : 2 канала
Расположение каналов : Front: L R
Частота : 48, 0 КГц
Частота кадров : 31, 250 кадров/сек (1536 spf)
Метод сжатия : С потерями
Размер потока : 59, 5 Мбайт (10%)
Выравнивание : Разделение по промежуткам
Продолжительность промежутка : 40 мс. (1, 00 видеокадр)
Время предзагрузки промежутка : 500 мс.

Скриншоты для ознакомления




Онлайн видео Сладкая жизнь (2016) WEB

Другие торренты по теме:

  • Сладкая жизнь (2015) SATRip (сезон 2, серии 1 из 8) (обновляемая) скачать через торрент бесплатно
  • Сладкая жизнь (2015) WEB-DLRip [H.264 / 720p-LQ] (сезон 2, серии 1- из 8) (обновляемая) скачать через торрент бесплатно
  • Сладкая жизнь (2015) WEB-DLRip (сезон 2, серии 1- из 8) (обновляемая) скачать через торрент бесплатно
  • Сладкая жизнь (2015) WEB-DLRip [H.264] (сезон 2, серии 1-3 из 8) (обновляемая) скачать через торрент бесплатно
  • Сладкая жизнь (2016) DVB [H.264] (сезон 3, серии 1- из 7) (обновляемая)
  • Сладкая жизнь (2016) DVBRip [H.264] (сезон 3, серии 1- из 7) (обновляемая)
  • Сладкая жизнь (2016) SATRip (сезон 3, серии 1 из 7) (обновляемая)
  • Сладкая жизнь (2016) WEB-DLRip [H.264 / 720p-LQ] (сезон 3, серии 1- из 7) (обновляемая)

  • Посетители, находящиеся в группе Гости, не могут оставлять комментарии в данной новости.