Подписывайся на наш канал в Telegram https://t.me/torrentok и получи доступ к торрентам без ограничений!

Проповедник / Preacher (2016) WEB-DLRip (сезон 1, серии 1 из 10) OMSKBIRD (обновляемая) торрент скачать бесплатно

Проповедник / Preacher (2016) WEB-DLRip (сезон 1, серии 1 из 10) OMSKBIRD (обновляемая)Производство: США/AMC Studios
Жанр: мистика, драма
Режиссер: Эван Голдберг, Сет Роген, Майкл Словис

Актеры
Доминик Купер, Том Брук, У. Эрл Браун, Йен Коллетти, Джозеф Гилган, Люси Гриффитс, Джеки Эрл Хейли и др.

Описание

Священник Джесси Кастер по воле случая стал носителем внутри своего естества странного существа по имени Генезис. Это дитя совокупления ангела и демона представляет собой одновременно чистый идеал и квинтэссенцию света, но также сгусток абсолютного зла. Генезис — единственное существо во Вселенной, которое может встать вровень с Богом, если того пожелает, а его носитель автоматически становится самым могущественным существом в материальном мире. Самое интересное в это истории, что об этом Чак Норрис ничего не знал. И это проповедник Кастер.

Продолжительность: ~01: 00: 00 серия
Качество видео: WEB-DLRip
Перевод: Многоголосый закадровый, профессиональный | OMSKBIRD
Реклама: присутствуют аудио вставки рекламы.
Видео: Xvid, 720x400, ~1940 kbps
Аудио # 1 Rus: AC-3, 6 ch, 384 kbps, CBR - многоголосый закадровый
Аудио # 2 Eng: AC-3, 6 ch, 384 kbps, CBR - оригинал Код:
General
Complete name : F:Мои ДокументыВидеоРАЗДАЧИПричерPreacher S01 WEB-DLRip (OMSKBIRD)Preacher S01E01 WEB-DLRip (OMSKBIRD).avi
Format : AVI
Format/Info : Audio Video Interleave
File size : 1.23 GiB
Duration : 1h 4mn
Overall bit rate : 2 722 Kbps
Writing application : VirtualDubMod 1.5.10.3 |www.virtualdub-fr.org|| (build 2550/release)
Writing library : VirtualDubMod build 2550/release
Video
ID : 0
Format : MPEG-4 Visual
Format profile : Advanced [email protected]
Format settings, BVOP : 1
Format settings, QPel : No
Format settings, GMC : No warppoints
Format settings, Matrix : Default (MPEG)
Codec ID : XVID
Codec ID/Hint : XviD
Duration : 1h 4mn
Bit rate : 1 940 Kbps
Width : 720 pixels
Height : 400 pixels
Display aspect ratio : 16:9
Frame rate : 23.976 fps
Color space : YUV
Chroma subsampling : 4:2:0
Bit depth : 8 bits
Scan type : Progressive
Compression mode : Lossy
Bits/(Pixel*Frame) : 0.281
Stream size : 899 MiB (71%)
Writing library : XviD 1.2.1 (UTC 2008-12-04)
Audio #1
ID : 1
Format : AC-3
Format/Info : Audio Coding 3
Mode extension : CM (complete main)
Format settings, Endianness : Big
Codec ID : 2000
Duration : 1h 4mn
Bit rate mode : Constant
Bit rate : 384 Kbps
Channel(s) : 6 channels
Channel positions : Front: L C R, Side: L R, LFE
Sampling rate : 48.0 KHz
Bit depth : 16 bits
Compression mode : Lossy
Stream size : 178 MiB (14%)
Alignment : Split accross interleaves
Interleave, duration : 42 ms (1.00 video frame)
Interleave, preload duration : 500 ms
Audio #2
ID : 2
Format : AC-3
Format/Info : Audio Coding 3
Mode extension : CM (complete main)
Format settings, Endianness : Big
Codec ID : 2000
Duration : 1h 4mn
Bit rate mode : Constant
Bit rate : 384 Kbps
Channel(s) : 6 channels
Channel positions : Front: L C R, Side: L R, LFE
Sampling rate : 48.0 KHz
Bit depth : 16 bits
Compression mode : Lossy
Stream size : 178 MiB (14%)
Alignment : Split accross interleaves
Interleave, duration : 42 ms (1.00 video frame)
Interleave, preload duration : 500 ms


Скриншоты для ознакомления




Онлайн видео Проповедник

Другие торренты по теме:

  • Проповедник / Preacher (2016) WEB-DL [H.264 / 720p-LQ] (сезон 1, серии 1 из 10) OMSKBIRD (обновляемая)
  • Проповедник / Preacher (2016) WEB-DL [H.264 / 720p-LQ] (сезон 1, серия 1 из 10) (Jaskier) (обновляемая)
  • Проповедник / Preacher (2016) WEB-DL [H.264 / 1080p-LQ] (сезон 1, серия 1 из 10) (Jaskier) (обновляемая)
  • Проповедник / Preacher (2016) WEB-DLRip [H.264 / 1080p-LQ] (сезон 1, серии 1 из 10) BaibaKo (обновляемая)
  • Проповедник / Preacher (2016) HDTVRip [H.264 / 720p-LQ] (сезон 1, серии 1 из 10) SunshineStudio (обновляемая)
  • Проповедник / Preacher (2016) HDTVRip (сезон 1, серии 1 из 10) SunshineStudio (обновляемая)
  • Проповедник / Preacher (2019) WEB-DL [H.264 / 720p-LQ] (сезон 4, серии 1-2 из 10) (обновляемая) Кубик в Кубе
  • Проповедник / Preacher (2019) WEBRip [H.264 / 720p-LQ] (сезон 4, серии 1-3 из 10) FastFilm (обновляемая) [AD]

  • Посетители, находящиеся в группе Гости, не могут оставлять комментарии в данной новости.