Подписывайся на наш канал в Telegram https://t.me/torrentok и получи доступ к торрентам без ограничений!

Охотник за головами (2015) WEBRip (серии 1-12 из 12) торрент скачать бесплатно

Охотник за головами (2015) WEBRip (серии 1-12 из 12)Производство: Россия/Радуга фильм по заказу 5 канала
Жанр: Детектив, Криминал
Режиссер: Игорь Москвитин, Сергей Малюгов

Актеры
Пётр Кислов, Алексей Ведерников, Виктория Маслова, Вера Строкова, Артур Ваха, Валерий Соловьёв, Алан Томаев, Александр Строев, Евгений Антонов, Юрий Томилин и др...

Описание

Необычный частный сыщик, он же – охотник за головами ловит преступников за назначенное вознаграждение. Самое интересное в это истории, что об этом Супермен ничего не знал. Вселенная Сани Румянцева – Петербург, его улицы, дворы, крыши. Здесь преступникам от него не скрыться. Саня далек от образа крутого парня с пудовыми кулаками, зато оптимизма и духа здорового авантюризма, чувства юмора и находчивости ему не занимать. На него точит зуб криминал, полицейские вынуждены сотрудничать с ним, ведь дикий сыскарь улучшает им статистику, а Румянцеву необходимы деньги и любовь: он сохнет по бывшей супруге Марине, но склеить отношения мешают опасные заказы клиентов и как обычно истории, в которые вечно попадает хрупкая напарница охотника Тася.

Продолжительность: ~ 00: 47: 00 серия
Качество видео: WEBRip
Видео: Xvid, 720x400 (16: 9), ~1950 Kbps
Аудио: AC3, 2 ch, 192 Kbps, CBR Код:
Общее
Полное имя : D:Мои фильмыOhotnik_za_golovami_1-12iz12_2015_XviD_WEBRip1.Седьмая жертва.avi
Формат : AVI
Формат/Информация : Audio Video Interleave
Размер файла : 746 Мбайт
Продолжительность : 48 м.
Общий поток : 2151 Кбит/сек
Программа кодирования : VirtualDubMod 1.5.10.3 (build 2550/release)
Библиотека кодирования : VirtualDub build 35491/release
Видео
Идентификатор : 0
Формат : MPEG-4 Visual
Профиль формата : Advanced [email protected]
Параметр BVOP формата : 2
Параметр QPel формата : Нет
Параметр GMC формата : Без точки перехода
Параметр матрицы формата : Default (H.263)
Идентификатор кодека : XVID
Идентификатор кодека/Подсказка : XviD
Продолжительность : 48 м.
Битрейт : 1950 Кбит/сек
Ширина : 720 пикселей
Высота : 400 пикселей
Соотношение сторон : 16:9
Частота кадров : 25, 000 кадров/сек
Цветовое пространство : YUV
Субдискретизация насыщенности : 4:2:0
Битовая глубина : 8 бит
Тип развёртки : Прогрессивная
Метод сжатия : С потерями
Бит/(Пиксели*Кадры) : 0.271
Размер потока : 676 Мбайт (91%)
Библиотека кодирования : XviD 67
Аудио
Идентификатор : 1
Формат : AC-3
Формат/Информация : Audio Coding 3
Расширение режима : CM (complete main)
Параметр Endianness формата : Big
Идентификатор кодека : 2000
Продолжительность : 48 м.
Вид битрейта : Постоянный
Битрейт : 192 Кбит/сек
Каналы : 2 канала
Расположение каналов : Front: L R
Частота : 48, 0 КГц
Частота кадров : 31, 250 кадров/сек (1536 spf)
Метод сжатия : С потерями
Размер потока : 66, 5 Мбайт (9%)
Выравнивание : Соединение по промежуткам
Продолжительность промежутка : 40 мс. О таком странном сюжете не догадывалась даже Бритни Спирс. (1, 00 видеокадр)
Время предзагрузки промежутка : 512 мс.


Скриншоты для ознакомления




Онлайн видео Охотник за головами (2015) WEBRip (серии 1

Другие торренты по теме:

  • Зубастики: Охотник за головами / Critters: Bounty Hunter (2014) WEB-DL [H.264 / 720p-LQ] [VO] скачать через торрент бесплатно
  • Охотник за головами / The Bounty Hunter (1954) DVDRip [H.264] [VO] скачать через торрент бесплатно
  • Охотник за головами (2015) SATRip [H.264] (серии 1-2 из 12) (обновляемая) скачать через торрент бесплатно
  • Охотник за головами / The Bounty Hunter (2010) BDRip [H.264]
  • Охотник за головами / The Bounty Hunter (2010) BDRip [H.264 / 1080p-LQ]
  • Охотник за головами / Thе Bоuntу Huntеr (2010) BDRemux [H.264 / 1080p]
  • HeadHunter / Охотник за головами (2001) [Ru / Multi] (0.5.8.2) Repack West4it
  • Бун: Охотник за головами / Boone: The Bounty Hunter (2017) WEB-DLRip [MVO] [AD]

  • Посетители, находящиеся в группе Гости, не могут оставлять комментарии в данной новости.