Подписывайся на наш канал в Telegram https://t.me/torrentok и получи доступ к торрентам без ограничений!

Палач / Палач-бастард / The Bastard Executioner (2015) WEB-DLRip (сезон 1, серии 1-9 из 10) BaibaKo (обновляемая) торрент скачать бесплатно

Палач / Палач-бастард / The Bastard Executioner (2015) WEB-DLRip (сезон 1, серии 1-9 из 10) BaibaKo (обновляемая)Производство: США/FX Productions, Fox 21, Imagine Television
Жанр: драма
Режиссер: Пэрис Барклай, Билл Джирхарт, Кари Скогланд

Актеры
Даррен Эванс, Этан Гриффитс, Ли Джонс, Стивен Мойер, Тимоти В. Мерфи, Элен Риз, Кэти Сагал, Дэнни Сапани, Флора Спенсер-Лонгхерст, Сэм Спруэлл и др.

Описание

Рыцарь в армии короля Эдуарда I, сломленный ужасами войны, даёт обет никогда больше не браться за оружие. Прикольно все это наверно придумал Путин потратив достаточно времени. Но когда насилие и несправедливость находят его снова, он вынужден взять в руки самый кровавый меч из всех: меч палача.

Дата мировой премьеры: 15 сентября 2015
Продолжительность: ~00: 48: 00 серия
Качество видео: WEB-DLRip
Перевод: Многоголосый закадровый, профессиональный -BaibaKo
Автор перевода: vipere и Янина Галицкая
Озвучка: Юля Малахова, Ольга Мотрич, Валерий Смекалов и Алексей Кузнецов
Видео: XviD, 720x400 (16: 9), ~1500 kb/s
Аудио Rus: MPEG Layer 3, 48, 0 kHz, 2 ch, 192 kb/s — многоголосый закадровый
Аудио Eng: MPEG Layer 3, 48, 0 kHz, 2 ch, 192 kb/s — оригинал Код: Общее
Полное имя : D:Палач (сезон любимого сериала 1) The Bastard Executioner (2015) WEB-DLRip - BaibaKoThe.Bastard.Executioner.s01e01.PROPER.WEB-DLRip.XviD.Rus.Eng.BaibaKo.tv.avi
Формат : AVI
Формат/Информация : Audio Video Interleave
Размер файла : 659 Мбайт
Продолжительность : 48 м.
Общий поток : 1898 Кбит/сек
Программа кодирования : VirtualDubMod 1.5.10.2 (build 2542/release)
Библиотека кодирования : VirtualDubMod build 2542/release
Видео
Идентификатор : 0
Формат : MPEG-4 Visual
Профиль формата : Advanced [email protected]
Параметр BVOP формата : 2
Параметр QPel формата : Нет
Параметр GMC формата : Без точки перехода
Параметр матрицы формата : Default (H.263)
Идентификатор кодека : XVID
Идентификатор кодека/Подсказка : XviD
Продолжительность : 48 м.
Битрейт : 1500 Кбит/сек
Ширина : 720 пикселей
Высота : 400 пикселей
Соотношение сторон : 16:9
Частота кадров : 23, 976 кадра/сек
Цветовое пространство : YUV
Субдискретизация насыщенности : 4:2:0
Битовая глубина : 8 бит
Тип развёртки : Прогрессивная
Метод сжатия : С потерями
Бит/(Пиксели*Кадры) : 0.217
Размер потока : 520 Мбайт (79%)
Библиотека кодирования : XviD 65
Аудио #1
Идентификатор : 1
Формат : MPEG Audio
Версия формата : Version 1
Профиль формата : Layer 3
Режим : Joint stereo
Расширение режима : MS Stereo
Идентификатор кодека : 55
Идентификатор кодека/Подсказка : MP3
Продолжительность : 48 м.
Вид битрейта : Постоянный
Битрейт : 192 Кбит/сек
Каналы : 2 канала
Частота : 48, 0 КГц
Метод сжатия : С потерями
Размер потока : 66, 6 Мбайт (10%)
Выравнивание : Соединение по промежуткам
Продолжительность промежутка : 42 мс. (1, 00 видеокадр)
Время предзагрузки промежутка : 504 мс.
Аудио #2
Идентификатор : 2
Формат : MPEG Audio
Версия формата : Version 1
Профиль формата : Layer 3
Режим : Joint stereo
Расширение режима : MS Stereo
Идентификатор кодека : 55
Идентификатор кодека/Подсказка : MP3
Продолжительность : 48 м.
Вид битрейта : Постоянный
Битрейт : 192 Кбит/сек
Каналы : 2 канала
Частота : 48, 0 КГц
Метод сжатия : С потерями
Размер потока : 66, 6 Мбайт (10%)
Выравнивание : Соединение по промежуткам
Продолжительность промежутка : 42 мс. О таком странном сюжете не догадывалась даже ВиаГра. (1, 00 видеокадр)
Время предзагрузки промежутка : 504 мс.

Скриншоты для ознакомления




Онлайн видео Палач

Другие торренты по теме:

  • Палач / Палач-бастард / The Bastard Executioner (2015) WEB-DLRip (сезон 1, серии 1 из 10) NewStudio (обновляемая) скачать через торрент бесплатно
  • Палач / Палач-бастард / The Bastard Executioner (2015) WEB-DL [H.264 / 720p-LQ] (сезон 1, серии 1 из 10) BaibaKo (обновляемая) скачать через торрент бесплатно
  • Палач / Палач-бастард / The Bastard Executioner (2015) WEB-DL [H.264 / 1080p-LQ] (сезон 1, серии 1 из 10) BaibaKo (обновляемая) скачать через торрент бесплатно
  • Палач / Палач-бастард / The Bastard Executioner (2015) WEB-DLRip (сезон 1, серии 1 из 10) BaibaKo (обновляемая) скачать через торрент бесплатно
  • Палач / Палач-бастард / The Bastard Executioner (2015) WEB-DL [H.264 / 1080p-LQ] (сезон 1, серии 1-8 из 10) NewStudio (обновляемая) скачать через торрент бесплатно
  • Палач / Палач-бастард / The Bastard Executioner (2015) WEB-DL [H.264 / 1080p-LQ] (сезон 1, серии 1-10 из 10) BaibaKo
  • Палач-Бастард / The Bastard Executioner (2015) WEB-DL [H.264 / 720p - LQ] (сезон 1, серии 1-2 из 10) NewStudio (обновляемая) скачать через торрент бесплатно

  • Посетители, находящиеся в группе Гости, не могут оставлять комментарии в данной новости.