Подписывайся на наш канал в Telegram https://t.me/torrentok и получи доступ к торрентам без ограничений!

Ледников (2013) WEBRip (серии 1-16 из 16) торрент скачать бесплатно

Ледников (2013) WEBRip (серии 1-16 из 16)Производство: Россия/Компания ООО СТОРИ ФИЛЬМ
Жанр: Детектив, Криминал
Режиссер: Олег Фомин

Актеры
Андрей Чернышов, Данила Дунаев, Нина Усатова, Александр Пороховщиков, Станислав Дужников, Елена Захарова, Олег Фомин, Борис Шувалов, Надежда Борисова, Яна Поплавская и др...

Описание

Главный герой сериала — в прошлом блестящий следователь прокуратуры. Пережив тяжелую психологическую травму, он работает криминальным журналистом и, вопреки желанию ни во что не ввязываться, раскрывает преступления быстрее своих старых знакомых из УВД.

Продолжительность: ~ 00: 42: 00 серия
Качество видео: WEBRip
Видео: Xvid, 720x400 (16: 9), ~1644 Kbps
Аудио: AC3, 2 ch, 192 Kbps, CBR Код:
Общее
Полное имя : D:Мои фильмыLednikov_1-16iz16_2013_XviD_WEBRipLednikov_01_WEBRip.avi
Формат : AVI
Формат/Информация : Audio Video Interleave
Размер файла : 555 Мбайт
Продолжительность : 42 м.
Общий поток : 1845 Кбит/сек
Библиотека кодирования : VirtualDub build 35491/release
Видео
Идентификатор : 0
Формат : MPEG-4 Visual
Профиль формата : Advanced [email protected]
Параметр BVOP формата : 2
Параметр QPel формата : Нет
Параметр GMC формата : Без точки перехода
Параметр матрицы формата : Default (H.263)
Идентификатор кодека : XVID
Идентификатор кодека/Подсказка : XviD
Продолжительность : 42 м.
Битрейт : 1644 Кбит/сек
Ширина : 720 пикселей
Высота : 400 пикселей
Соотношение сторон : 16:9
Частота кадров : 25, 000 кадров/сек
Цветовое пространство : YUV
Субдискретизация насыщенности : 4:2:0
Битовая глубина : 8 бит
Тип развёртки : Прогрессивная
Метод сжатия : С потерями
Бит/(Пиксели*Кадры) : 0.228
Размер потока : 495 Мбайт (89%)
Библиотека кодирования : XviD 67
Аудио
Идентификатор : 1
Формат : AC-3
Формат/Информация : Audio Coding 3
Расширение режима : CM (complete main)
Параметр Endianness формата : Big
Идентификатор кодека : 2000
Продолжительность : 42 м.
Вид битрейта : Постоянный
Битрейт : 192 Кбит/сек
Каналы : 2 канала
Расположение каналов : Front: L R
Частота : 48, 0 КГц
Частота кадров : 31, 250 кадров/сек (1536 spf)
Метод сжатия : С потерями
Размер потока : 57, 8 Мбайт (10%)
Выравнивание : Соединение по промежуткам
Продолжительность промежутка : 40 мс. (1, 00 видеокадр)
Время предзагрузки промежутка : 512 мс.


Скриншоты для ознакомления




Онлайн видео Ледников (2013) WEBRip (серии 1

Другие торренты по теме:


Посетители, находящиеся в группе Гости, не могут оставлять комментарии в данной новости.