Подписывайся на наш канал в Telegram https://t.me/torrentok и получи доступ к торрентам без ограничений!

Проповедник / Preacher (2016) WEB-DL [H.264 / 1080p-LQ] (сезон 1, серия 1 из 10) (Jaskier) (обновляемая) торрент скачать бесплатно

Проповедник / Preacher (2016) WEB-DL [H.264 / 1080p-LQ] (сезон 1, серия 1 из 10) (Jaskier) (обновляемая)Производство: США, AMC Studios
Жанр: фэнтези, драма, детектив, приключения
Режиссер: Эван Голдберг, Сет Роген, Майкл Словис

Актеры
Доминик Купер, Джозеф Гилган, Рут Негга, Люси Гриффитс, У. Эрл Браун, Том Брук, Анатол Юсеф, Йен Коллетти, Дерек Уилсон, Джеки Эрл Хейли и др.

Описание

Проповедник Джесси Кастер по воле случая стал носителем внутри своего естества странного существа по имени Генезис. Это дитя совокупления ангела и демона представляет собой одновременно чистый идеал и квинтэссенцию света, но также сгусток абсолютного зла. Генезис — единственное существо во Вселенной, которое может встать вровень с Богом, если того пожелает, а его носитель автоматически становится самым могущественным существом в материальном мире. И это проповедник Кастер.

Дата мировой премьеры: 22 мая 2016
Продолжительность: ~ 01: 04: 00 серия
Качество видео: WEB-DL
Перевод: Профессиональный многоголосый закадровый -Jaskier
Автор перевода: Алексей Матвеев
Вид субтитров: вшитые отключаемые
Язык субтитров: английский
Формат: MKV
Видео: AVC/H.264, 1916x1076 (16: 9), ~4980 Kbps, ~0.101 bit/pixel
Аудио Rus: AC3, 192 kbps, 2 ch, 48 kHz
Аудио Eng: AC3, 384 kbps, 6 ch, 48 kHz Код: Общее
Preacher - Проповедник. О таком странном сюжете не догадывалась даже Настя Каменских. Сезон 1. Jaskier. 1080pPreacher.S01E01.WEB-DL.1080p.Rus.Eng.Jaskier.mkv
Формат : Matroska
Версия формата : Version 4/Version 2
Размер файла : 2, 57 Гбайт
Продолжительность : 1 ч. 4 м.
Общий поток : 5669 Кбит/сек
Название фильма : Preacher s01e01 @ NNM-Club
Дата кодирования : UTC 2016-05-24 05:58:49
Программа кодирования : mkvmerge v6.9.1 (\'Blue Panther\') 64bit built on Apr 18 2014 18:23:38
Библиотека кодирования : libebml v1.3.0 + libmatroska v1.4.1
Видео
Идентификатор : 1
Формат : AVC
Формат/Информация : Advanced Video Codec
Профиль формата : [email protected]
Параметр CABAC формата : Да
Параметр ReFrames формата : 4 кадра
Идентификатор кодека : V_MPEG4/ISO/AVC
Продолжительность : 1 ч. 4 м.
Битрейт : 4980 Кбит/сек
Ширина : 1916 пикселей
Высота : 1076 пикселей
Соотношение сторон : 16:9
Режим частоты кадров : Постоянный
Частота кадров : 23, 976 кадра/сек
Цветовое пространство : YUV
Субдискретизация насыщенности : 4:2:0
Битовая глубина : 8 бит
Тип развёртки : Прогрессивная
Бит/(Пиксели*Кадры) : 0.101
Размер потока : 2, 25 Гбайт (88%)
Язык : English
Default : Да
Forced : Нет
Цветовой диапазон : Limited
Основные цвета : BT.709
Характеристики трансфера : BT.709
Коэффициенты матрицы : BT.709
Аудио #1
Идентификатор : 2
Формат : AC-3
Формат/Информация : Audio Coding 3
Расширение режима : CM (complete main)
Параметр Endianness формата : Big
Идентификатор кодека : A_AC3
Продолжительность : 1 ч. 4 м.
Вид битрейта : Постоянный
Битрейт : 192 Кбит/сек
Каналы : 2 канала
Расположение каналов : Front: L R
Частота : 48, 0 КГц
Метод сжатия : С потерями
Размер потока : 89, 0 Мбайт (3%)
Язык : Russian
Default : Да
Forced : Нет
Аудио #2
Идентификатор : 3
Формат : AC-3
Формат/Информация : Audio Coding 3
Расширение режима : CM (complete main)
Параметр Endianness формата : Big
Идентификатор кодека : A_AC3
Продолжительность : 1 ч. 4 м.
Вид битрейта : Постоянный
Битрейт : 384 Кбит/сек
Каналы : 6 каналов
Расположение каналов : Front: L C R, Side: L R, LFE
Частота : 48, 0 КГц
Метод сжатия : С потерями
Размер потока : 178 Мбайт (7%)
Язык : English
Default : Нет
Forced : Нет
Текст
Идентификатор : 4
Формат : UTF-8
Идентификатор кодека : S_TEXT/UTF8
Идентификатор кодека/Информация : UTF-8 Plain Text
Язык : English
Default : Нет
Forced : Нет

Скриншоты для ознакомления




Онлайн видео Проповедник

Другие торренты по теме:

  • Проповедник / Preacher (2016) WEB-DLRip (сезон 1, серии 1 из 10) OMSKBIRD (обновляемая)
  • Проповедник / Preacher (2016) WEB-DL [H.264 / 720p-LQ] (сезон 1, серии 1 из 10) OMSKBIRD (обновляемая)
  • Проповедник / Preacher (2016) WEB-DL [H.264 / 720p-LQ] (сезон 1, серия 1 из 10) (Jaskier) (обновляемая)
  • Проповедник / Preacher (2016) WEB-DLRip [H.264 / 1080p-LQ] (сезон 1, серии 1 из 10) BaibaKo (обновляемая)
  • Проповедник / Preacher (2016) HDTVRip [H.264 / 720p-LQ] (сезон 1, серии 1 из 10) SunshineStudio (обновляемая)
  • Проповедник / Preacher (2016) HDTVRip (сезон 1, серии 1 из 10) SunshineStudio (обновляемая)
  • Проповедник / Preacher (2019) WEB-DL [H.264 / 720p-LQ] (сезон 4, серии 1-2 из 10) (обновляемая) Кубик в Кубе
  • Проповедник / Preacher (2019) WEBRip [H.264 / 720p-LQ] (сезон 4, серии 1-3 из 10) FastFilm (обновляемая) [AD]

  • Посетители, находящиеся в группе Гости, не могут оставлять комментарии в данной новости.