Подписывайся на наш канал в Telegram https://t.me/torrentok и получи доступ к торрентам без ограничений!

Изгой / Outcast (2016) WEBRip [H.264 / 720p-LQ] (сезон 1, серии 1 из 10) BaibaKo (обновляемая) торрент скачать бесплатно

Изгой / Outcast (2016) WEBRip [H.264 / 720p-LQ] (сезон 1, серии 1 из 10) BaibaKo (обновляемая)Производство: США
Жанр: драма, ужасы
Режиссер: Адам Вингард, Ли Джаньяк, Лони Перистер

Актеры
Гэбриел Бейтман, Филип Гленистер, Камерон Блэквелдер, Кемден Флауэрс, Брент Гриббл, Зак Шири, Фаррис Бойд, Пит Буррис, Лэси Кэмп, Рег Э. Кэти и др.

Описание

Экранизация комикса Роберта Киркмана с одноименным названием о парне, одержимом бесами.
Добровольный отшельник Кайл Барнс, все время проживающий с бесами внутри, связывается со священником-евангелистом из Западной Вирджинии, пьяницей и азартным игроком, чтоб изгонять демонов.

Возраст: 16+ (зрителям, достигшим 16 лет)
Релиз от: BaibaKo
Продолжительность: ~ 00: 55: 00 серия
Качество видео: WEB-DLRip
Перевод: Многоголосый закадровый, профессиональный - BaibaKo
Реклама: присутствуют аудио, видео, текстовые вставки рекламы.
Видео: AVC/H.264, 1280x720, ~4010 Кбит/сек
Аудио Rus: AC3, 2 ch, 384 Кбит/сек - многоголосый закадровый
Аудио Eng: AC3, 2 ch, 384 Кбит/сек - оригинал Код:
Общее
Уникальный идентификатор : 213085127234584811733145193933903612239 (0xA04EB3E5C023B460A2D1C6F6BC11C94F)
Полное имя : E:СериалыИзгой Outcast s01Outcast.s01.HD720p.WEBRip.Rus.Eng.BaibaKo.tvOutcast.s01e01.HD720p.WEBRip.Rus.Eng.BaibaKo.tv.mkv
Формат : Matroska
Версия формата : Version 4/Version 2
Размер файла : 1, 84 Гбайт
Продолжительность : 55 м.
Общий поток : 4780 Кбит/сек
Дата кодирования : UTC 2016-05-22 19:28:48
Программа кодирования : mkvmerge v9.1.0 (\'Little Earthquakes\') 64bit
Библиотека кодирования : libebml v1.3.3 + libmatroska v1.4.4
Видео
Идентификатор : 1
Формат : AVC
Формат/Информация : Advanced Video Codec
Профиль формата :[email protected]
Параметр CABAC формата : Да
Параметр ReFrames формата : 4 кадра
Идентификатор кодека : V_MPEG4/ISO/AVC
Продолжительность : 55 м.
Битрейт : 4010 Кбит/сек
Ширина : 1280 пикселей
Высота : 720 пикселей
Соотношение сторон : 16:9
Режим частоты кадров : Постоянный
Частота кадров : 23, 976 (24000/1001) кадра/сек
Цветовое пространство : YUV
Субдискретизация насыщенности : 4:2:0
Битовая глубина : 8 бит
Тип развёртки : Прогрессивная
Бит/(Пиксели*Кадры) : 0.181
Размер потока : 1, 55 Гбайт (84%)
Библиотека кодирования : x264 core 148 r2665 a01e339
Настройки программы : cabac=1/ref=3/deblock=1:0:0/analyse=0x3:0x113/me=hex/subme=7/psy=1/psy_rd=1.00:0.00/mixed_ref=1/me_range=16/chroma_me=1/trellis=1/8x8dct=1/cqm=0/deadzone=21, 11/fast_pskip=1/chroma_qp_offset=-2/threads=12/lookahead_threads=2/sliced_threads=0/nr=0/decimate=1/interlaced=0/bluray_compat=0/constrained_intra=0/bframes=3/b_pyramid=2/b_adapt=1/b_bias=0/direct=1/weightb=1/open_gop=0/weightp=2/keyint=240/keyint_min=23/scenecut=40/intra_refresh=0/rc_lookahead=40/rc=crf/mbtree=1/crf=18.0/qcomp=0.60/qpmin=0/qpmax=69/qpstep=4/ip_ratio=1.40/aq=1:1.00
Default : Нет
Forced : Нет
Аудио #1
Идентификатор : 2
Формат : AC-3
Формат/Информация : Audio Coding 3
Расширение режима : CM (complete main)
Параметр Endianness формата : Big
Идентификатор кодека : A_AC3
Продолжительность : 55 м.
Вид битрейта : Постоянный
Битрейт : 384 Кбит/сек
Каналы : 2 канала
Расположение каналов : Front: L R
Частота : 48, 0 КГц
Частота кадров : 31, 250 кадров/сек (1536 spf)
Метод сжатия : С потерями
Размер потока : 152 Мбайт (8%)
Язык : Russian
Default : Да
Forced : Нет
Аудио #2
Идентификатор : 3
Формат : AC-3
Формат/Информация : Audio Coding 3
Расширение режима : CM (complete main)
Параметр Endianness формата : Big
Идентификатор кодека : A_AC3
Продолжительность : 55 м.
Вид битрейта : Постоянный
Битрейт : 384 Кбит/сек
Каналы : 2 канала
Расположение каналов : Front: L R
Частота : 48, 0 КГц
Частота кадров : 31, 250 кадров/сек (1536 spf)
Метод сжатия : С потерями
Размер потока : 152 Мбайт (8%)
Язык : English
Default : Нет
Forced : Нет


Скриншоты для ознакомления




Онлайн видео Изгой

Другие торренты по теме:

  • Изгой / Outcast (2016) WEBRip (сезон 1, серии 1 из 10) OMSKBIRD (обновляемая)
  • Изгой / Outcast (2016) WEBRip [H.264 / 720p-LQ] (сезон 1, серии 1 из 10) OMSKBIRD (обновляемая)
  • Изгой / Outcast (2016) HDTVRip (сезон 1, серии 1 из 10) NewStudio (обновляемая)
  • Изгой / Outcast (2016) HDTV [H.264 / 720p-LQ] (сезон 1, серия 1 из 10) (AlexFilm) (обновляемая)
  • Изгой / Outcast (2016) HDTVRip (сезон 1, серии 1 из 10) AlexFilm (обновляемая)
  • Изгой / Outcast (2016) HDTVRip [H.264 / 720p-LQ] (сезон 1, серии 1 из 10) NewStudio (обновляемая)
  • Изгой / Outcast (2016) HDTVRip (сезон 1, серии 1 из 10) LostFilm (обновляемая)
  • Изгой / Outcast (2016) HDTVRip [H.264 / 720p-LQ] (сезон 1, серии 1-1 из 10) LostFilm (обновляемая)

  • Посетители, находящиеся в группе Гости, не могут оставлять комментарии в данной новости.