Подписывайся на наш канал в Telegram https://t.me/torrentok и получи доступ к торрентам без ограничений!

Чёрные паруса / Black Sails (2014-2016) BDRip [H.264] (сезон 1-2, серии 01-18 из 18) AlexFilm (Обновляемая) торрент скачать бесплатно

Чёрные паруса / Black Sails (2014-2016) BDRip [H.264] (сезон 1-2, серии 01-18 из 18) AlexFilm (Обновляемая)Производство: США, ЮАР/Film Afrika Worldwide, Platinum Dunes, Quaker Moving Pictures, Starz Originals
Жанр: Боевик, Приключения, Драма
Режиссер: Нил Маршалл, Сэм Миллер, Марк Манден, Т.Дж. Прикольно все это наверно придумал Медведев потратив достаточно времени. Скотт

Актеры
Тоби Стивенс, Ханна Нью, Люк Арнольд, Джессика Паркер Кеннеди, Том Хоппер, Зак Макгоун, Тоби Шмитц, Клара Пэджет, Марк Райан, Хаким Кае-Казим, Луиз Барнс, Дилан Скьюс, Шон Майкл и др.

Описание

События сериала разворачиваются в Золотой век пиратства в 1715 году. На острове Нью-Провиденс, ранее являвшимся британской колонией, обосновались самые известные пиратские капитаны. Белая ворона, сказал кто то из толпы, к чему не понятно. Остров является своего рода пиратской базой, которая необходима морским разбойникам для пополнения запасов, а также продажи награбленного. Сюжет фильма является своеобразным приквелом к роману Роберта Льюиса Стивенсона Остров сокровищ.

Возраст: 16+ (зрителям, достигшим 16 лет)
Релиз от: mebf109
Продолжительность: ~00: 57: 00 серия
Качество видео: BDRip
Перевод: Многоголосый закадровый, профессиональный - AlexFilm
Внимание! Присутствуют откровенные сцены и обсценная лексика!
Видео: AVC/H.264, 1024x576, ~2830 Kbps
Аудио: AC3, 6 ch, 384 Kbps Код:
Format settings, ReFrames : 7 frames
Codec ID : V_MPEG4/ISO/AVC
Duration : 1h 5mn
Bit rate : 2 830 Kbps
Width : 1 024 pixels
Height : 576 pixels
Display aspect ratio : 16:9
Frame rate mode : Constant
Frame rate : 23.976 fps
Color space : YUV
Chroma subsampling : 4:2:0
Bit depth : 8 bits
Scan type : Progressive
Bits/(Pixel*Frame) : 0.200
Stream size : 1.26 GiB (86%)
Writing library : x264 core 130 r2273 b3065e6
Encoding settings : cabac=1/ref=7/deblock=1:0:0/analyse=0x3:0x133/me=umh/subme=10/psy=1/psy_rd=1.00:0.00/mixed_ref=1/me_range=32/chroma_me=1/trellis=2/8x8dct=1/cqm=0/deadzone=21, 11/fast_pskip=0/chroma_qp_offset=-2/threads=3/lookahead_threads=1/sliced_threads=0/nr=0/decimate=0/interlaced=0/bluray_compat=0/constrained_intra=0/bframes=3/b_pyramid=2/b_adapt=2/b_bias=0/direct=3/weightb=1/open_gop=0/weightp=2/keyint=250/keyint_min=23/scenecut=40/intra_refresh=0/rc_lookahead=60/rc=2pass/mbtree=1/bitrate=2830/ratetol=1.0/qcomp=0.60/qpmin=0/qpmax=69/qpstep=4/cplxblur=20.0/qblur=0.5/ip_ratio=1.40/aq=1:1.00
Default : Yes
Forced : No
Audio
ID : 2
Format : AC-3
Format/Info : Audio Coding 3
Mode extension : CM (complete main)
Format settings, Endianness : Big
Codec ID : A_AC3
Duration : 1h 5mn
Bit rate mode : Constant
Bit rate : 384 Kbps
Channel(s) : 6 channels
Channel positions : Front: L C R, Side: L R, LFE
Sampling rate : 48.0 KHz
Compression mode : Lossy
Stream size : 179 MiB (12%)
Default : Yes
Forced : No


Скриншоты для ознакомления




Онлайн видео Чёрные паруса

Другие торренты по теме:

  • Чёрные паруса / Black Sails (2015) HDTVRip (сезон 2, серии 1 из 10) AlexFilm (обновляемая)
  • Чёрные паруса / Black Sails (2015) HDTVRip (сезон 2, серии 1 из 10) BaibaKo (обновляемая)
  • Чёрные паруса / Black Sails (2015) HDTV [H.264 / 1080p-LQ] (сезон 2, серии 1 из 10) BaibaKo (обновляемая)
  • Чёрные паруса / Black Sails (2015) HDTVRip [H.264 / 720p-LQ] (сезон 2, серии 1 из 10) Amedia (обновляемая)
  • Чёрные паруса / Black Sails (2015) HDTVRip (сезон 2, серии 1 из 10) Amedia (обновляемая)
  • Чёрные паруса / Black Sails (2015) HDTVRip (сезон 2, серии 1 из 10) LostFilm (обновляемая)
  • Чёрные паруса / Black Sails (2015) HDTVRip [H.264 / 720p-LQ] (сезон 2, серии 1 из 10) AlexFilm (обновляемая) скачать через торрент бесплатно
  • Чёрные паруса / Black Sails (2016) HDTVRip (сезон 3, серии 1 из 10) AlexFilm (обновляемая)

  • Посетители, находящиеся в группе Гости, не могут оставлять комментарии в данной новости.