Подписывайся на наш канал в Telegram https://t.me/torrentok и получи доступ к торрентам без ограничений!

Проект "Синяя книга" / Проект засекречен / Project Blue Book (2019-2020) WEB-DLRip [H.264] (сезон 1-2, серии 1-19 из 20) LostFilm [MP4|720x400] торрент скачать бесплатно

Проект Синяя книга / Проект засекречен / Project Blue Book (2019-2020) WEB-DLRip [H.264] (сезон 1-2, серии 1-19 из 20) LostFilm [MP4|720x400]Производство: США, Канада/IMN Creative, A+E Studios, Compari Entertainment
Жанр: фантастика, триллер, драма, детектив
Режиссер: Норма Бэйли, Томас Картер, Алекс Грейвз
Актеры: Эйдан Гиллен, Майкл Маларки, Лаура Меннелл, Ксения Соло, Нил МакДонаф, Майкл Харни, Николас Холмс, Джилл Моррисон, Иэн Трейси, Роберт Джон Бёрк и др.

Описание

Продолжение сериала снятого в жанре научной фантастики и основанного на данных о реальном проекте Военно-воздушных сил США Синяя книга.
Пятидесятые годы прошлого века. Астроном Дж. Аллен Хинек и капитан ВВС США Майкл Квинн разбираются со свидетельствами появления НЛО. В ходе расследования они натыкаются на правительственный заговор, скрывающий от населения правду.

Продолжительность: ~00: 45: 00 серия
Качество видео: WEB-DLRip
Перевод: Многоголосый закадровый, профессиональный -LostFilm
Видео: AVC/H.264, 720x400, ~1536 Kbps
Аудио #1: AAC, 2 ch, 160 Kbps — русский
Аудио #2: AAC, 2 ch, 160 Kbps — английский
Полное имя : D: Project_Blue_Book_(all.sezon\'s)_WEB-DLRip_x264_LostFilm_NNM-CLUBсезон 1Project.Blue.Book.S01E01.WEB-DLRip.rus.LostFilm.mp4
Формат : MPEG-4
Профиль формата : Base Media
Идентификатор кодека : isom (isom/iso2/avc1/mp41)
Размер файла : 592 Мбайт
Продолжительность : 44 м.
Общий поток : 1863 Кбит/сек
Программа кодирования : XviD4PSP 7.0.129
Видео
Идентификатор : 1
Формат : AVC
Формат/Информация : Advanced Video Codec
Профиль формата : [email protected]
Параметр CABAC формата : Нет
Параметр ReFrames формата : 3 кадра
Идентификатор кодека : avc1
Идентификатор кодека/Информация : Advanced Video Coding
Продолжительность : 44 м.
Битрейт : 1536 Кбит/сек
Ширина : 720 пикселей
Высота : 400 пикселей
Соотношение сторон : 16: 9
Режим частоты кадров : Постоянный
Частота кадров : 23, 976 (24000/1001) кадра/сек
Цветовое пространство : YUV
Субдискретизация насыщенности : 4: 2: 0
Битовая глубина : 8 бит
Тип развёртки : Прогрессивная
Бит/(Пиксели*Кадры) : 0.222
Размер потока : 488 Мбайт (82%)
Библиотека кодирования : x264 core 146 r2538M 121396c
Настройки программы : cabac=0/ref=3/deblock=1: 0: 0/analyse=0x1: 0x131/me=hex/subme=7/psy=1/psy_rd=1, 00: 0, 20/mixed_ref=1/me_range=16/chroma_me=1/trellis=1/8x8dct=0/cqm=0/deadzone=21, 11/fast_pskip=1/chroma_qp_offset=-3/threads=8/lookahead_threads=1/sliced_threads=0/nr=0/decimate=1/interlaced=0/bluray_compat=0/constrained_intra=0/bframes=0/weightp=2/keyint=230/keyint_min=23/scenecut=0/intra_refresh=0/rc_lookahead=230/rc=2pass/mbtree=1/bitrate=1536/ratetol=1, 0/qcomp=0, 60/qpmin=10/qpmax=51/qpstep=4/cplxblur=20, 0/qblur=0, 5/ip_ratio=1, 40/aq=1: 1, 00
Аудио #1
Идентификатор : 2
Формат : AAC
Формат/Информация : Advanced Audio Codec
Профиль формата : LC
Идентификатор кодека : 40
Продолжительность : 44 м.
Вид битрейта : Постоянный
Битрейт : 160 Кбит/сек
Каналы : 2 канала
Расположение каналов : Front: L R
Частота : 48, 0 КГц
Частота кадров : 46, 875 кадров/сек (1024 spf)
Метод сжатия : С потерями
Размер потока : 50, 8 Мбайт (9%)
Язык : Russian
Default : Да
Alternate group : 1
Аудио #2
Идентификатор : 3
Формат : AAC
Формат/Информация : Advanced Audio Codec
Профиль формата : LC
Идентификатор кодека : 40
Продолжительность : 44 м.
Вид битрейта : Постоянный
Битрейт : 160 Кбит/сек
Каналы : 2 канала
Расположение каналов : Front: L R
Частота : 48, 0 КГц
Частота кадров : 46, 875 кадров/сек (1024 spf)
Метод сжатия : С потерями
Размер потока : 50, 9 Мбайт (9%)
Default : Нет
Alternate group : 1

Другие торренты по теме:

  • Проект засекречен / Проект "Синяя книга" / Project Blue Book (2019) WEB-DLRip (сезон 1, серии 1 из 10) Кириллица (обновляемая)
  • Проект засекречен / Проект "Синяя книга" / Project Blue Book (2019) WEBRip (сезон 1, серии 1 из 10) BaibaKo (обновляемая) [AD]
  • Проект засекречен / Проект "Синяя книга" / Project Blue Book (2019) WEBRip [H.264 / 1080p-LQ] (сезон 1, серии 1 из 10) OMSKBIRD (обновляемая) [AD]
  • Проект засекречен / Проект "Синяя книга" / Project Blue Book (2019) WEB-DL [H.264 / 1080p-LQ] (сезон 1, серии 1 из 10) Кириллица (обновляемая)
  • Проект засекречен / Проект "Синяя книга" / Project Blue Book (2019) WEB-DLRip (сезон 1, серии 1 из 10) LostFilm (обновляемая)
  • Проект засекречен / Проект "Синяя книга" / Project Blue Book (2019) WEBRip [H.264 / 1080p-LQ] (сезон 1, серии 1 из 10) TVShows (обновляемая)
  • Проект засекречен / Проект "Синяя книга" / Project Blue Book (2019) WEB-DL [H.264 / 1080p-LQ] (сезон 1, серии 1-3 из 10) LostFilm (обновляемая)
  • Проект засекречен / Проект "Синяя книга" / Project Blue Book (2019) WEBRip [H.265 / 1080p-LQ] [HDR] (сезон 1, серии 1-6 из 10) BaibaKo [AD] (обновляемая)

  • Посетители, находящиеся в группе Гости, не могут оставлять комментарии в данной новости.